<?xml version="1.0" standalone="no"?>
<!DOCTYPE svg PUBLIC "-//W3C//DTD SVG 1.1//EN" "http://www.w3.org/Graphics/SVG/1.1/DTD/svg11.dtd" >
<svg xmlns="http://www.w3.org/2000/svg">
<metadata>
This is a custom SVG webfont generated by Font Squirrel.
Copyright   : Copyright c 2008 by Hubert Jocham All rights reserved Webfont optimisation by Gran Sderstrm Pangea design 2011
Designer    : Hubert Jocham
Foundry     : Hubert Jocham
Foundry URL : httpwwwhubertjochamde
</metadata>
<defs>
<font id="VattenfallVoiceWebBookRegular" horiz-adv-x="1228" >
<font-face units-per-em="2048" ascent="1556" descent="-492" />
<missing-glyph horiz-adv-x="512" />
<glyph unicode=" "  horiz-adv-x="512" />
<glyph unicode="&#x09;" horiz-adv-x="512" />
<glyph unicode="&#xa0;" horiz-adv-x="512" />
<glyph unicode="!" horiz-adv-x="491" d="M135 98q0 63 34 89t75 26q45 0 77.5 -25.5t32.5 -89.5q0 -63 -32.5 -88.5t-77.5 -25.5q-41 0 -75 25.5t-34 88.5zM147 1524h191l-10 -1073h-170z" />
<glyph unicode="&#x22;" horiz-adv-x="784" d="M123 1524h182l-22 -416h-140zM479 1524h180l-20 -416h-139z" />
<glyph unicode="#" horiz-adv-x="1445" d="M66 424l24 156h275l65 344h-287l27 153h291l86 447h168l-82 -447h315l84 447h170l-86 -447h275l-27 -153h-277l-63 -344h287l-25 -156h-291l-80 -424h-172l82 424h-321l-82 -424h-172l82 424h-266zM532 580h322l66 344h-318z" />
<glyph unicode="$" d="M94 131l62 172q61 -39 133 -67q61 -25 144 -45.5t181 -20.5q160 0 241 61.5t81 178.5q0 72 -35 115.5t-93 73.5t-132 50.5t-150.5 42t-149.5 50t-131.5 75.5t-93 118t-34.5 175q0 172 109.5 280.5t297.5 127.5v237h172v-233q98 -8 173 -25.5t128 -38.5q61 -23 107 -51 l-57 -170q-53 33 -121 57q-57 23 -137 41.5t-177 18.5q-150 0 -227.5 -64.5t-77.5 -177.5q0 -74 35 -120t92.5 -76.5t130 -50t148 -41t148.5 -49t130.5 -73t92 -115t34.5 -173.5q0 -174 -113.5 -282.5t-308.5 -127.5v-268h-172v266q-100 8 -180 28.5t-135 43.5 q-66 24 -115 57z" />
<glyph unicode="%" horiz-adv-x="1845" d="M86 1161q0 94 27.5 167t78 124t119 77.5t150.5 26.5q86 0 155.5 -25.5t119.5 -75.5t78 -124t28 -168q0 -96 -28 -170.5t-79 -125t-120.5 -77t-153.5 -26.5q-170 0 -272.5 101t-102.5 296zM242 0l1167 1524h184l-1163 -1524h-188zM242 1163q0 -135 58 -200.5t163 -65.5 q104 0 162.5 65.5t58.5 200.5q0 131 -58.5 196.5t-164.5 65.5q-102 0 -160.5 -65.5t-58.5 -196.5zM1010 365q0 188 104.5 291.5t271.5 103.5q170 0 273.5 -100.5t103.5 -292.5q0 -96 -27.5 -170t-77.5 -125.5t-120 -78t-152 -26.5q-172 0 -274 102.5t-102 295.5zM1163 367 q0 -135 59.5 -200t163.5 -65t162 64.5t58 200.5q0 131 -57.5 196.5t-162.5 65.5q-104 0 -163.5 -65.5t-59.5 -196.5z" />
<glyph unicode="&#x26;" horiz-adv-x="1617" d="M135 385q0 133 74 241.5t231 180.5q-35 39 -62.5 78t-48 82t-31.5 91t-11 107q0 88 31.5 158t87 118t130 73.5t160.5 25.5t157 -24.5t121 -70.5t77.5 -111.5t27.5 -145.5q0 -145 -86 -246.5t-284 -183.5l331 -379q78 109 143.5 279.5t98.5 398.5h174q-39 -256 -119 -456 t-178 -333q61 -57 126 -79.5t136 -22.5h56v-166h-64q-111 0 -197 30.5t-174 110.5q-190 -166 -444 -166q-115 0 -201 32t-144 87.5t-88 130t-30 160.5zM315 387q0 -109 77 -181.5t214 -72.5q88 0 171 31t149 94l-381 432q-119 -53 -174.5 -126t-55.5 -177zM459 1163 q0 -78 30.5 -143.5t114.5 -147.5q96 37 156.5 71t94.5 70t46 76.5t12 94.5q0 82 -55 141t-162 59q-61 0 -106 -18t-74 -49t-43 -71t-14 -83z" />
<glyph unicode="'" horiz-adv-x="432" d="M121 1524h190l-22 -416h-146z" />
<glyph unicode="(" horiz-adv-x="591" d="M102 686q0 207 42 362.5t94 262.5q59 125 137 213h182q-76 -92 -133 -217q-49 -106 -90 -262t-41 -359q0 -205 41 -359.5t90 -260.5q57 -125 133 -218h-182q-78 88 -137 213q-51 106 -93.5 262t-42.5 363z" />
<glyph unicode=")" horiz-adv-x="591" d="M35 -152q74 92 131 218q49 106 91 260.5t42 359.5q0 203 -42 358.5t-91 262.5q-57 125 -131 217h182q76 -88 135 -213q51 -106 94 -262t43 -363t-43 -362.5t-94 -262.5q-59 -125 -135 -213h-182z" />
<glyph unicode="*" horiz-adv-x="1128" d="M61 1083l58 191l379 -158l-31 408h199l-31 -408l377 154l57 -189l-391 -92l266 -311l-160 -117l-217 348l-217 -346l-157 117l264 311z" />
<glyph unicode="+" d="M131 518v170h393v418h174v-418h402v-170h-402v-422h-174v422h-393z" />
<glyph unicode="," horiz-adv-x="442" d="M59 -209l105 436h205l-160 -436h-150z" />
<glyph unicode="-" horiz-adv-x="784" d="M86 520v168h610v-168h-610z" />
<glyph unicode="." horiz-adv-x="442" d="M113 100q0 63 33.5 90t74.5 27q45 0 79 -26.5t34 -90.5q0 -63 -34 -89.5t-79 -26.5q-41 0 -74.5 26.5t-33.5 89.5z" />
<glyph unicode="/" horiz-adv-x="839" d="M27 0l600 1524h186l-596 -1524h-190z" />
<glyph unicode="0" d="M94 760q0 215 42 363.5t114 241.5t167 135t199 42t197.5 -42t164.5 -135t113 -241.5t42 -363.5q0 -213 -42 -361.5t-113 -242t-164 -135t-198 -41.5q-104 0 -199 41.5t-167 135t-114 242t-42 361.5zM285 760q0 -176 26.5 -296t72.5 -191.5t106.5 -102.5t130.5 -31 q66 0 125 31t103 102.5t69.5 191.5t25.5 296q0 178 -25.5 298t-69.5 191.5t-103.5 101t-129.5 29.5q-66 0 -125 -29.5t-105 -101t-73.5 -191.5t-27.5 -298z" />
<glyph unicode="1" d="M145 0v162h414v1145l-326 -154v170l363 201h152v-1362h376v-162h-979z" />
<glyph unicode="2" d="M135 1184q27 98 88 178q27 33 63 65.5t85 58t111.5 41t142.5 15.5q102 0 187 -28.5t146.5 -83t95 -134t33.5 -182.5q0 -72 -15 -130t-46 -113.5t-78 -114t-112 -125.5l-451 -467h731v-164h-962v160l555 579q51 53 88 98.5t60.5 89.5t34.5 89t11 96q0 131 -76.5 197.5 t-205.5 66.5q-100 0 -160 -36.5t-92 -82.5q-37 -53 -56 -116z" />
<glyph unicode="3" d="M113 334l180 45q16 -68 57 -121q35 -47 99.5 -84t171.5 -37q66 0 121 18.5t96 54.5t64.5 89t23.5 125q0 70 -22.5 122t-61.5 87t-91.5 52t-111.5 17h-213v154h174q59 0 112.5 17.5t92.5 51t61.5 84t22.5 115.5q0 131 -77 191.5t-198 60.5q-92 0 -148 -34.5t-87 -75.5 q-37 -49 -51 -111l-178 43q25 96 81 172q25 33 60 63.5t82 55t106.5 39t134.5 14.5q94 0 177 -23.5t144.5 -73.5t97.5 -127t36 -181q0 -96 -34 -161t-74 -106q-49 -47 -109 -75q72 -23 129 -70q49 -41 90 -112.5t41 -188.5q0 -109 -40 -193t-107.5 -141t-156.5 -86t-190 -29 q-84 0 -149.5 15.5t-116.5 40t-89 56.5t-64 67q-63 80 -86 180z" />
<glyph unicode="4" d="M86 276v156l674 1092h248v-1090h151v-158h-151v-276h-183v276h-739zM281 434h544v877z" />
<glyph unicode="5" d="M121 334q45 12 90 23.5t90 21.5q16 -68 57 -121q35 -47 98.5 -84t170.5 -37q63 0 120.5 20.5t101.5 61.5t69.5 105.5t25.5 154.5q0 92 -27.5 155.5t-73.5 103.5t-109.5 57.5t-133.5 17.5q-84 0 -157.5 -17.5t-129.5 -39.5q-66 -25 -118 -58v826h860v-166h-697v-438 q35 14 78 26q37 10 88 18.5t111 8.5q98 0 187 -27.5t157 -87t107.5 -153t39.5 -226.5q0 -129 -41 -223t-109.5 -156.5t-158.5 -93.5t-190 -31q-84 0 -149.5 15.5t-116 40t-88 56.5t-64.5 67q-63 80 -88 180z" />
<glyph unicode="6" d="M123 717q0 229 39 388t107.5 257t164.5 141t211 43q143 0 230.5 -52t134.5 -116q53 -74 77 -168l-176 -43q-14 59 -49 109q-29 41 -81 74.5t-138 33.5q-66 0 -124 -27.5t-103 -91t-74 -166t-31 -251.5q43 29 97 51q45 20 107.5 36.5t133.5 16.5q96 0 183.5 -26.5t153 -84 t104 -147.5t38.5 -217q0 -125 -39.5 -217t-106.5 -153.5t-155 -92t-182 -30.5q-106 0 -201.5 37.5t-166 124.5t-112.5 227.5t-42 343.5zM307 690q0 -160 29 -265.5t76 -167.5t109.5 -89t131.5 -27q59 0 112.5 19.5t94.5 61.5t64.5 104.5t23.5 148.5q0 88 -26.5 149.5 t-70.5 99.5t-103.5 54.5t-126.5 16.5q-66 0 -122.5 -16.5t-99.5 -37.5q-51 -22 -92 -51z" />
<glyph unicode="7" d="M131 1358v166h971v-160l-545 -1364h-201l545 1358h-770z" />
<glyph unicode="8" d="M102 412q0 111 40 183.5t87 115.5q55 51 129 75q-61 29 -108 76q-41 41 -74 106.5t-33 164.5q0 104 39 181t104.5 128t151.5 75.5t178 24.5q94 0 180.5 -24.5t151 -74.5t102 -127t37.5 -181q0 -98 -34.5 -163t-75.5 -106q-49 -47 -109 -75q72 -25 129 -74q47 -41 88 -113 t41 -186q0 -115 -43 -198t-113.5 -137t-163.5 -81t-192 -27q-100 0 -192 26t-163 79t-114 135t-43 197zM287 420q0 -143 93 -213t234 -70q70 0 130.5 17.5t104.5 52.5t68.5 88t24.5 125q0 141 -87 216t-241 75q-158 0 -242.5 -78t-84.5 -213zM326 1126q0 -68 22.5 -118 t60 -83.5t89 -50t110.5 -16.5q57 0 111.5 16.5t94.5 50t64.5 84t24.5 117.5q0 127 -80 190.5t-209 63.5t-208.5 -62.5t-79.5 -191.5z" />
<glyph unicode="9" d="M100 1055q0 125 40 217t106.5 153.5t153.5 92t184 30.5q106 0 201.5 -37.5t166 -125t112.5 -227.5t42 -343q0 -229 -39 -388t-107.5 -257t-165 -141t-210.5 -43q-72 0 -129.5 14t-102.5 36.5t-77.5 53.5t-57.5 62q-55 74 -78 167l178 43q14 -61 50 -108q29 -41 80 -74 t137 -33q66 0 124 28t103 91.5t72.5 166t31.5 251.5q-43 -31 -96 -53q-45 -20 -106.5 -36.5t-132.5 -16.5q-98 0 -185.5 26.5t-153 85t-103.5 148.5t-38 217zM279 1055q0 -90 26.5 -150.5t71.5 -98.5t104.5 -54.5t126.5 -16.5q66 0 121 16.5t98 36.5q49 23 93 54 q0 158 -28 263t-75 168.5t-110.5 90.5t-133.5 27q-59 0 -112 -19.5t-94 -61.5t-64.5 -105.5t-23.5 -149.5z" />
<glyph unicode=":" horiz-adv-x="442" d="M113 100q0 63 33.5 90t74.5 27q45 0 79 -26.5t34 -90.5q0 -63 -34 -89.5t-79 -26.5q-41 0 -74.5 26.5t-33.5 89.5zM113 940q0 63 33.5 90t74.5 27q45 0 79 -26.5t34 -90.5q0 -63 -34 -89.5t-79 -26.5q-41 0 -74.5 26.5t-33.5 89.5z" />
<glyph unicode=";" horiz-adv-x="442" d="M140 940q0 63 33.5 90t74.5 27q45 0 79 -26.5t34 -90.5q0 -63 -34 -89.5t-79 -26.5q-41 0 -74.5 26.5t-33.5 89.5zM43 -209l105 436h205l-160 -436h-150z" />
<glyph unicode="&#x3c;" d="M113 518v170l1003 385v-182l-803 -291l803 -293v-176z" />
<glyph unicode="=" d="M131 369v161h969v-161h-969zM131 709v161h969v-161h-969z" />
<glyph unicode="&#x3e;" d="M113 131v176l802 293l-802 291v182l1003 -385v-170z" />
<glyph unicode="?" horiz-adv-x="937" d="M53 1217q18 88 72 157q20 31 52 59.5t73 51t95 36t122 13.5q86 0 159.5 -21.5t128 -66.5t85 -114.5t30.5 -164.5q0 -84 -24.5 -142t-61 -100t-79.5 -75t-80 -69t-61.5 -80t-24.5 -107v-143h-179v133q0 86 25 144t62.5 99t80.5 73t81 68t62.5 82t24.5 117 q0 106 -62.5 157.5t-166.5 51.5q-78 0 -124 -30.5t-71 -65.5q-29 -43 -41 -96zM342 98q0 63 34 89t77 26t76.5 -25.5t33.5 -89.5q0 -63 -33.5 -88.5t-76.5 -25.5t-77 25.5t-34 88.5z" />
<glyph unicode="@" horiz-adv-x="1910" d="M174 762q0 174 59.5 318.5t167 247t256 159.5t326.5 57q162 0 300 -52t239.5 -147.5t158 -227.5t56.5 -292q0 -117 -28 -209t-77 -155.5t-113.5 -97t-138.5 -33.5q-59 0 -95 19.5t-58 41.5q-25 27 -37 64q-41 -37 -92 -66q-43 -25 -101.5 -44t-128.5 -19 q-113 0 -190.5 59t-77.5 180q0 74 32 125t87 83t131 47.5t166 15.5h155v65q0 100 -49 134t-141 34q-66 0 -120 -12.5t-95 -26.5q-49 -18 -88 -39l-47 123q47 25 102 47q47 16 112.5 31.5t143.5 15.5q158 0 240 -69.5t82 -223.5v-356q0 -59 28.5 -81.5t67.5 -22.5 q74 0 127 91t53 275q0 135 -47 241.5t-129 181.5t-192.5 115t-235.5 40q-152 0 -271.5 -47t-204.5 -131t-130 -202t-45 -259q0 -150 46 -268.5t133 -201.5t213 -127t286 -44q104 0 191 17.5t153 39.5q76 25 137 60l47 -138q-68 -35 -149 -61q-72 -23 -167.5 -42.5 t-211.5 -19.5q-197 0 -351.5 54.5t-262 156t-165 247t-57.5 329.5zM748 569q0 -66 43 -91t98 -25q57 0 108.5 19.5t89.5 41.5q45 27 84 64v139h-155q-154 0 -211 -42.5t-57 -105.5z" />
<glyph unicode="A" horiz-adv-x="1449" d="M51 0l563 1524h226l559 -1524h-205l-119 328h-704l-121 -328h-199zM420 489h606l-303 840z" />
<glyph unicode="B" horiz-adv-x="1337" d="M154 0v1524h600q86 0 163.5 -21.5t136 -69t92.5 -121t34 -177.5q0 -98 -32 -161t-71 -104q-45 -47 -102 -73q72 -25 127 -74q47 -41 88 -113.5t41 -185.5q0 -109 -37 -187.5t-97.5 -132t-139 -79t-162.5 -25.5h-641zM338 164h432q57 0 107.5 16.5t87 49t57 81.5t20.5 115 q0 68 -22.5 119t-60 85t-90 50t-111.5 16h-420v-532zM338 860h379q119 0 198.5 66.5t79.5 195.5t-76.5 184.5t-197.5 55.5h-383v-502z" />
<glyph unicode="C" horiz-adv-x="1501" d="M106 762q0 213 57.5 361.5t153 241.5t217 135t250.5 42q102 0 183.5 -20.5t144 -53t108.5 -75.5t76 -86q74 -104 99 -236l-185 -45q-20 96 -73 174q-23 33 -54.5 64.5t-74.5 56.5t-98.5 40t-123.5 15q-90 0 -177 -29.5t-154.5 -101t-109.5 -189.5t-42 -294 q0 -178 42 -297t110.5 -190.5t155.5 -102.5t180 -31q68 0 123 14.5t97 39t73.5 55.5t54.5 63q53 76 71 174l183 -41q-29 -133 -103 -235q-31 -43 -77 -85t-107.5 -75t-142 -53.5t-181.5 -20.5q-129 0 -250.5 43t-216 136.5t-152 243t-57.5 362.5z" />
<glyph unicode="D" horiz-adv-x="1462" d="M152 0v1524h528q135 0 258 -41t216 -132t148.5 -236.5t55.5 -352.5t-56.5 -352.5t-149.5 -236.5t-217 -132t-259 -41h-524zM342 170h336q94 0 181 28.5t153.5 97.5t106.5 183.5t40 284.5q0 172 -40 285.5t-106.5 182t-154.5 97.5t-186 29h-330v-1188z" />
<glyph unicode="E" horiz-adv-x="1230" d="M154 0v1524h964v-166h-778v-498h694v-164h-694v-526h784v-170h-970z" />
<glyph unicode="F" horiz-adv-x="1177" d="M154 0v1524h946v-166h-758v-522h690v-164h-690v-672h-188z" />
<glyph unicode="G" horiz-adv-x="1519" d="M104 762q0 213 57.5 361.5t153 241.5t218 135t251.5 42q137 0 235.5 -33.5t166 -84t108.5 -110t62.5 -110.5t28.5 -85l8 -34l-185 -43q-23 92 -75 166q-23 31 -54.5 60.5t-73.5 53.5t-96.5 38t-122.5 14q-90 0 -177 -29.5t-154.5 -101.5t-109.5 -189.5t-42 -293.5 q0 -172 44 -291t117 -190.5t164 -103.5t187 -32q92 0 165 17.5t124 40.5q59 25 104 59v289h-331v160h518v-531q-70 -57 -158 -100q-76 -37 -183.5 -67.5t-242.5 -30.5q-131 0 -258 41.5t-226.5 136t-161 243t-61.5 361.5z" />
<glyph unicode="H" horiz-adv-x="1462" d="M154 0v1524h192v-662h770v662h193v-1524h-193v692h-770v-692h-192z" />
<glyph unicode="I" horiz-adv-x="512" d="M160 0v1524h192v-1524h-192z" />
<glyph unicode="J" horiz-adv-x="630" d="M47 0v164h72q164 0 164 164v1196h190v-1198q0 -168 -95 -247t-249 -79h-82z" />
<glyph unicode="K" horiz-adv-x="1366" d="M154 0v1524h188v-840l690 840h234l-396 -475l449 -1049h-209l-387 885l-381 -449v-436h-188z" />
<glyph unicode="L" horiz-adv-x="1128" d="M154 0v1524h192v-1354h735v-170h-927z" />
<glyph unicode="M" horiz-adv-x="1650" d="M152 0v1524h268l405 -1278l410 1278h264v-1524h-176v1251l-412 -1251h-180l-405 1247v-1247h-174z" />
<glyph unicode="N" horiz-adv-x="1449" d="M154 0v1524h227l739 -1237v1237h176v-1524h-219l-747 1239v-1239h-176z" />
<glyph unicode="O" horiz-adv-x="1597" d="M106 762q0 213 56.5 362.5t152 242.5t220 135t264.5 42q137 0 263 -42t221 -135t151.5 -242.5t56.5 -362.5t-56.5 -361.5t-151.5 -243t-221 -136t-263 -41.5q-139 0 -264 41.5t-220.5 136t-152 243t-56.5 361.5zM299 762q0 -176 40 -295t109.5 -190.5t161.5 -103.5 t195 -32q98 0 187 32t158 103.5t108.5 190.5t39.5 295q0 174 -39.5 293t-107.5 191.5t-159 103t-193 30.5q-98 0 -188.5 -30.5t-160 -103t-110.5 -191.5t-41 -293z" />
<glyph unicode="P" horiz-adv-x="1271" d="M154 0v1524h602q86 0 164.5 -28t139 -83t96.5 -137t36 -189q0 -106 -37 -189t-98.5 -140.5t-140 -87t-164.5 -29.5h-410v-641h-188zM342 805h379q61 0 113.5 18.5t90.5 55t60.5 89t22.5 119.5q0 135 -78 205t-197 70h-391v-557z" />
<glyph unicode="Q" horiz-adv-x="1597" d="M106 768q0 211 56.5 358.5t152 240.5t220 135t264.5 42q137 0 263 -42t221 -135t151.5 -240.5t56.5 -358.5q0 -262 -92 -428t-240 -246q111 -45 171.5 -137t74.5 -199h-186q-23 117 -100 179.5t-195 62.5h-115q-141 0 -268 41t-223.5 132t-154 237.5t-57.5 357.5z M299 770q0 -172 41 -290t111.5 -188.5t163 -101t194.5 -30.5q98 0 187 30.5t156 101t106.5 188.5t39.5 290t-39.5 289t-107.5 188.5t-159 102t-193 30.5q-98 0 -188.5 -30.5t-160 -101t-110.5 -188.5t-41 -290z" />
<glyph unicode="R" horiz-adv-x="1333" d="M154 0v1524h626q86 0 165 -27t140.5 -81t97.5 -135t36 -189q0 -82 -24 -150t-63.5 -121t-93 -90t-114.5 -57l346 -674h-209l-328 639h-391v-639h-188zM342 807h401q123 0 205 73.5t82 209.5q0 135 -78 203.5t-198 68.5h-412v-555z" />
<glyph unicode="S" horiz-adv-x="1277" d="M106 119l64 174q63 -39 139 -70q66 -27 153 -47t189 -20q166 0 250 64.5t84 180.5q0 72 -37 118t-97 77t-137 51.5t-158 43t-157.5 51t-137 76.5t-97.5 120t-37 178q0 96 36 175t101.5 134.5t159.5 85t209 29.5q123 0 219 -19.5t164 -41.5q78 -27 137 -60l-57 -172 q-57 33 -129 60q-61 23 -145.5 41t-184.5 18q-156 0 -237 -65.5t-81 -182.5q0 -76 37 -123t96.5 -77.5t136.5 -51t157.5 -42t157.5 -49t136.5 -75t96.5 -118t37 -176.5q0 -96 -37 -174t-104.5 -133.5t-164 -85t-215.5 -29.5q-125 0 -225 20.5t-172 46.5q-84 29 -150 68z" />
<glyph unicode="T" horiz-adv-x="1179" d="M43 1358v166h1096v-166h-451v-1358h-196v1358h-449z" />
<glyph unicode="U" horiz-adv-x="1468" d="M145 545v979h195v-979q0 -190 99.5 -296t295.5 -106q199 0 298.5 104.5t99.5 297.5v979h190v-979q0 -133 -40 -239.5t-115.5 -181.5t-185.5 -115t-247 -40q-139 0 -247.5 40t-185.5 115t-117 181.5t-40 239.5z" />
<glyph unicode="V" horiz-adv-x="1376" d="M51 1524h207l430 -1297l438 1297h201l-534 -1524h-218z" />
<glyph unicode="W" horiz-adv-x="1988" d="M72 1524h194l242 -1301l381 1301h217l375 -1299l245 1299h189l-303 -1524h-252l-367 1303l-377 -1303h-251z" />
<glyph unicode="X" horiz-adv-x="1343" d="M55 0l498 770l-485 754h227l383 -615l379 615h219l-479 -754l493 -770h-223l-393 637l-400 -637h-219z" />
<glyph unicode="Y" horiz-adv-x="1302" d="M47 1524h225l385 -645l383 645h215l-503 -817v-707h-193v702z" />
<glyph unicode="Z" horiz-adv-x="1306" d="M119 0v162l833 1196h-833v166h1057v-160l-826 -1196h856v-168h-1087z" />
<glyph unicode="[" horiz-adv-x="591" d="M137 -152v1676h406v-166h-224v-1344h224v-166h-406z" />
<glyph unicode="\" horiz-adv-x="839" d="M27 1524h186l600 -1524h-190z" />
<glyph unicode="]" horiz-adv-x="591" d="M51 14h223v1346h-223v164h406v-1676h-406v166z" />
<glyph unicode="_" horiz-adv-x="1128" d="M-14 -188h1159v-148h-1159v148z" />
<glyph unicode="`" horiz-adv-x="1126" d="M346 1524h229l173 -297h-162z" />
<glyph unicode="a" horiz-adv-x="1148" d="M86 281q0 90 39 153.5t107.5 103.5t162.5 58t203 18h197v82q0 125 -62.5 169t-171.5 44q-84 0 -152.5 -15t-119.5 -34q-59 -23 -107 -47l-53 148q55 31 123 55q59 23 138 40t175 17q193 0 295.5 -85t102.5 -275v-437q0 -68 38.5 -104.5t88.5 -40.5l-15 -145 q-111 2 -174 42t-88 122q-49 -45 -113 -82q-53 -31 -126.5 -55.5t-161.5 -24.5q-68 0 -126.5 17.5t-103.5 54t-70.5 92t-25.5 129.5zM262 287q0 -41 15.5 -70t40 -46t57.5 -24.5t67 -7.5q72 0 136.5 24.5t111.5 55.5q55 37 105 82v172h-197q-96 0 -159.5 -14.5t-103.5 -39 t-56.5 -59t-16.5 -73.5z" />
<glyph unicode="b" horiz-adv-x="1153" d="M135 117v1407h172v-600q45 39 101 71q47 27 112.5 49.5t143.5 22.5q80 0 152.5 -28.5t125.5 -93t85 -168t32 -253.5t-40 -253t-107.5 -167.5t-153.5 -94t-178 -29.5q-102 0 -183.5 20t-140.5 47q-68 31 -121 70zM307 215q33 -23 74 -39q35 -14 85 -25.5t116 -11.5 q59 0 112.5 18.5t94 62.5t65.5 118t25 184q0 113 -19.5 187.5t-53.5 118.5t-78 61.5t-95 17.5q-68 0 -127.5 -24.5t-104.5 -53.5q-53 -35 -94 -77v-537z" />
<glyph unicode="c" horiz-adv-x="1105" d="M94 528q0 150 42 253.5t110.5 169t155.5 95t178 29.5q74 0 131 -14t102 -39t77 -55.5t54 -63.5q53 -76 68 -170l-168 -41q-12 63 -45 115q-29 43 -80 79t-137 36q-55 0 -109.5 -18.5t-97.5 -64.5t-69.5 -122t-26.5 -189q0 -115 26.5 -189.5t69.5 -120.5t97 -64.5 t110 -18.5q86 0 137 35t80 76q33 49 47 112l166 -36q-20 -96 -74 -172q-23 -33 -55.5 -64t-77.5 -54.5t-102.5 -37.5t-131.5 -14q-90 0 -176 29.5t-152.5 95t-107.5 169.5t-41 254z" />
<glyph unicode="d" horiz-adv-x="1163" d="M94 526q0 150 33 253.5t88 168t128 93t155 28.5q78 0 142.5 -22.5t111.5 -49.5q55 -33 102 -71v598h174v-1524h-172v131q-47 -41 -104 -74q-49 -29 -115 -51t-143 -22q-82 0 -155 28.5t-127 92t-86 166.5t-32 255zM276 528q0 -115 19.5 -189.5t53.5 -117.5t78 -60.5 t93 -17.5q68 0 127.5 25t106.5 53q53 35 100 80v453q-47 43 -100 77q-47 29 -107.5 53.5t-126.5 24.5q-49 0 -93 -17.5t-78 -60.5t-53.5 -116.5t-19.5 -186.5z" />
<glyph unicode="e" horiz-adv-x="1136" d="M94 528q0 145 41 249t108.5 169.5t153.5 96t176 30.5t174 -27.5t149 -91t103.5 -166t38.5 -251.5v-74h-766q8 -92 43 -152.5t85.5 -96.5t109.5 -50t119 -14q72 0 135 15t110 34q53 23 101 51l53 -150q-49 -35 -113 -59q-53 -23 -128.5 -40t-168.5 -17q-104 0 -199 29.5 t-167 95t-115 169t-43 250.5zM274 598h582q0 90 -24.5 152.5t-64.5 100.5t-90 55.5t-102 17.5q-51 0 -101 -16.5t-92 -54.5t-72 -100.5t-36 -154.5z" />
<glyph unicode="f" horiz-adv-x="722" d="M57 909v148h170v186q0 147 83 219t225 72q41 0 75.5 -3t61.5 -7q31 -6 55 -11l-22 -151q-23 4 -48 8q-23 4 -49 7t-53 3q-76 0 -114 -34.5t-38 -120.5v-168h293v-148h-293v-909h-176v909h-170z" />
<glyph unicode="g" horiz-adv-x="1210" d="M115 721q0 147 114.5 241.5t339.5 94.5h578v-137h-207q23 -18 43 -48q16 -25 30.5 -62.5t14.5 -88.5q0 -158 -121 -242t-338 -84q-33 0 -60.5 2t-49.5 6q-25 4 -47 9q-10 -12 -19 -27q-6 -12 -11 -28.5t-5 -32.5q0 -37 26.5 -57.5t71.5 -24.5l299 -27q354 -29 354 -283 q0 -82 -38.5 -144t-107.5 -105t-164 -66t-208 -23q-223 0 -354 79t-131 235q0 59 24.5 107t53.5 83q35 41 78 76l-11 8q-10 8 -21 24.5t-20.5 41t-9.5 57.5q0 29 9.5 55.5t19.5 47.5q12 23 31 43q-29 14 -57.5 37.5t-52.5 56.5t-39 77t-15 99zM285 717q0 -98 72.5 -146.5 t211.5 -48.5q141 0 216 49.5t75 145.5t-74.5 148.5t-216.5 52.5q-143 0 -213.5 -52.5t-70.5 -148.5zM301 -78q0 -96 81 -142t228 -46q76 0 139.5 11t109.5 35.5t71.5 60.5t25.5 85q0 68 -53 104t-149 46l-351 37q-29 -23 -51 -52q-20 -25 -35.5 -60.5t-15.5 -78.5z" />
<glyph unicode="h" horiz-adv-x="1132" d="M135 0v1524h170v-615q47 45 105 82q49 31 116.5 56.5t149.5 25.5q68 0 126 -19.5t101 -61.5t67.5 -108.5t24.5 -162.5v-721h-174v694q0 61 -14 103.5t-39 67t-58.5 34.5t-72.5 10q-68 0 -127 -26.5t-104 -59.5q-53 -37 -97 -84v-739h-174z" />
<glyph unicode="i" horiz-adv-x="483" d="M133 1413q0 61 32 86t75 25t76.5 -24.5t33.5 -86.5q0 -59 -33.5 -87t-76.5 -28t-75 28t-32 87zM152 0v1057h178v-1057h-178z" />
<glyph unicode="j" horiz-adv-x="489" d="M-20 -233h32q76 0 111 32.5t35 116.5v1141h178v-1153q0 -145 -86 -217t-221 -72h-49v152zM139 1413q0 59 33 85t74 26q43 0 77.5 -25.5t34.5 -85.5q0 -61 -34.5 -88t-77.5 -27q-41 0 -74 27t-33 88z" />
<glyph unicode="k" horiz-adv-x="1101" d="M133 0v1524h172v-987l486 520h223l-301 -316l329 -741h-196l-264 602l-277 -278v-324h-172z" />
<glyph unicode="l" horiz-adv-x="456" d="M139 0v1524h176v-1524h-176z" />
<glyph unicode="m" horiz-adv-x="1644" d="M135 0v1057h170v-135q39 41 90 73q43 29 100.5 52.5t129.5 23.5q98 0 162.5 -43t93.5 -117q41 43 94 80q45 29 106.5 54.5t137.5 25.5q59 0 112 -17.5t93 -57.5t62.5 -102.5t22.5 -150.5v-743h-176v723q0 109 -46 148.5t-111 39.5q-55 0 -103.5 -24.5t-83.5 -52.5 q-41 -35 -78 -76v-758h-176v723q0 55 -12 91t-33.5 57.5t-50.5 29.5t-61 8q-53 0 -101.5 -23.5t-85.5 -51.5q-43 -33 -82 -74v-760h-174z" />
<glyph unicode="n" horiz-adv-x="1132" d="M135 0v1057h170v-148q47 45 105 82q49 31 116.5 56.5t149.5 25.5q68 0 126 -19.5t101 -61.5t67.5 -108.5t24.5 -162.5v-721h-174v694q0 61 -14 102.5t-39 66t-58.5 34.5t-72.5 10q-68 0 -127 -26.5t-104 -57.5q-53 -37 -97 -84v-739h-174z" />
<glyph unicode="o" horiz-adv-x="1167" d="M94 526q0 150 40 253.5t107.5 169t155.5 95t187 29.5q98 0 186 -29.5t154.5 -95t106.5 -169t40 -253.5t-40 -253t-106.5 -167.5t-154.5 -94t-186 -29.5t-186.5 29.5t-156 94t-107.5 167.5t-40 253zM274 526q0 -115 25 -190.5t67 -121.5t98 -66.5t122 -20.5 q61 0 116.5 20.5t97.5 66.5t66.5 122t24.5 190q0 113 -24.5 191t-65.5 124t-98.5 66.5t-120.5 20.5q-61 0 -116.5 -20.5t-98.5 -66.5t-68 -124t-25 -191z" />
<glyph unicode="p" horiz-adv-x="1161" d="M133 -385v1442h172v-133q47 39 105 71q49 29 114.5 51.5t143.5 22.5q82 0 153.5 -28.5t125.5 -92t86 -168t32 -254.5t-33 -252t-88 -166.5t-129 -93t-156 -28.5q-78 0 -142 21.5t-111 47.5q-55 31 -101 72v-512h-172zM305 299q47 -43 101 -78q47 -29 106 -52.5t127 -23.5 q49 0 94 17.5t78 60.5t52.5 117t19.5 186q0 113 -19.5 186.5t-52.5 117.5t-78 61.5t-94 17.5q-68 0 -127 -24.5t-106 -53.5q-53 -35 -101 -77v-455z" />
<glyph unicode="q" horiz-adv-x="1153" d="M94 530q0 150 40 254.5t107.5 169t153.5 94t178 29.5q102 0 183.5 -21.5t140.5 -47.5q68 -31 123 -68v-1325h-174v518q-45 -41 -98 -74q-47 -29 -112 -50t-140 -21q-80 0 -153 28.5t-128 93t-88 167.5t-33 253zM276 532q0 -113 20.5 -186.5t54.5 -116.5t79 -60t94 -17 q68 0 126.5 23.5t101.5 51.5q51 35 94 78v535q-33 20 -74 39q-35 16 -86 28.5t-115 12.5q-59 0 -112 -18.5t-94 -63.5t-65 -120t-24 -186z" />
<glyph unicode="r" horiz-adv-x="763" d="M137 0v1057h172v-166q39 49 88 88q41 33 99.5 60.5t130.5 27.5q14 0 29.5 -1t27.5 -3l29 -4v-176q-16 2 -31 4q-14 2 -28.5 3t-24.5 1q-72 0 -130.5 -27.5t-99.5 -62.5q-49 -39 -86 -88v-713h-176z" />
<glyph unicode="s" horiz-adv-x="1013" d="M88 92l55 154q53 -29 115 -51q53 -20 120.5 -36t145.5 -16q115 0 172.5 38t57.5 108q0 68 -48.5 99.5t-120 50t-154.5 32.5t-154.5 45t-119.5 89.5t-48 164.5q0 141 104 224t293 83q94 0 170 -15t129 -32q61 -23 108 -47l-55 -152q-45 25 -100 46q-47 16 -111.5 30.5 t-142.5 14.5q-111 0 -167 -39t-56 -111q0 -68 48 -100.5t119.5 -51t154.5 -32t154.5 -45t120 -90t48.5 -164.5q0 -139 -108.5 -221t-295.5 -82q-100 0 -179 16t-136 37q-68 22 -119 53z" />
<glyph unicode="t" horiz-adv-x="776" d="M51 909v148h168v280h172v-280h297v-148h-297v-610q0 -86 39 -121t117 -35q29 0 53.5 2t46.5 7q23 4 47 10l21 -152q-27 -6 -56 -10q-57 -10 -133 -10q-141 0 -225 71.5t-84 219.5v628h-166z" />
<glyph unicode="u" horiz-adv-x="1132" d="M135 336v721h174v-697q0 -61 14.5 -102t39 -64.5t58.5 -33.5t73 -10q66 0 125 25.5t106 57.5q53 37 98 84v740h172v-1057h-170v147q-47 -45 -104 -81q-49 -31 -116.5 -56.5t-147.5 -25.5q-68 0 -126.5 18t-101.5 60t-68.5 110t-25.5 164z" />
<glyph unicode="v" horiz-adv-x="1015" d="M39 1057h188l285 -858l285 858h178l-369 -1057h-198z" />
<glyph unicode="w" horiz-adv-x="1554" d="M57 1057h187l164 -860l284 860h174l287 -862l166 862h176l-233 -1057h-211l-275 846l-280 -846h-213z" />
<glyph unicode="x" horiz-adv-x="1060" d="M55 0l367 537l-361 520h209l265 -398l260 398h198l-352 -520l369 -537h-207l-271 420l-276 -420h-201z" />
<glyph unicode="y" horiz-adv-x="1011" d="M41 1057h190l301 -805l261 805h178l-420 -1213q-78 -229 -326 -229h-43v152h27q76 0 117 27.5t63 92.5l53 148z" />
<glyph unicode="z" horiz-adv-x="1052" d="M109 0v143l608 766h-594v148h811v-144l-604 -763h624v-150h-845z" />
<glyph unicode="|" horiz-adv-x="468" d="M147 -387v1911h172v-1911h-172z" />
<glyph unicode="&#xa1;" horiz-adv-x="491" d="M135 1038q0 63 34 90t75 27q45 0 77.5 -26.5t32.5 -90.5q0 -61 -32.5 -86.5t-77.5 -25.5q-41 0 -75 25.5t-34 86.5zM147 -385l11 1075h170l10 -1075h-191z" />
<glyph unicode="&#xa2;" d="M147 528q0 129 32 223.5t84 159t122 101.5t145 49v254h179v-250q121 -14 190.5 -67.5t106.5 -112.5q43 -70 57 -154l-168 -39q-12 63 -45 115q-29 43 -80 79t-137 36q-55 0 -109.5 -19.5t-97.5 -64.5t-69.5 -121t-26.5 -189t25.5 -187.5t68.5 -120.5t97 -65.5t112 -19.5 q86 0 137 35t80 76q33 49 47 112l166 -39q-18 -84 -62 -151q-37 -59 -106.5 -111.5t-185.5 -66.5v-254h-179v256q-76 10 -145.5 47t-121.5 101.5t-84 160.5t-32 227z" />
<glyph unicode="&#xa3;" d="M76 0v152q109 2 176 27.5t105 64.5t51.5 86t13.5 94q0 74 -33 135h-262v148h192l-81 137q-39 63 -60.5 130.5t-21.5 141.5q0 100 34.5 180t97 134.5t147.5 83t186 28.5q80 0 142 -15.5t110.5 -41t84 -57t60.5 -64.5q57 -78 80 -176l-176 -45q-16 66 -54 119 q-33 45 -90 81.5t-155 36.5q-129 0 -207 -67.5t-78 -202.5q0 -78 31.5 -145.5t72.5 -133.5l74 -122h389v-148h-325q12 -31 18 -66.5t6 -70.5q0 -72 -29.5 -141.5t-78.5 -116.5h190q98 0 178 18.5t137 40.5q68 25 119 60l56 -166q-53 -35 -127 -60q-63 -23 -154.5 -41 t-210.5 -18h-608z" />
<glyph unicode="&#xa5;" d="M68 1524h219l331 -635l330 635h213l-385 -678h340v-144h-401v-161h401v-142h-401v-399h-195v399h-407v142h407v161h-407v144h344z" />
<glyph unicode="&#xa7;" d="M109 -268l59 172q61 -39 131 -68q59 -25 139 -45t170 -20q158 0 230.5 55t72.5 156q0 70 -33.5 111.5t-89 68t-126 43t-144.5 34t-144.5 42t-125.5 67.5t-89 109.5t-34 169.5q0 66 19.5 116t43.5 86q27 41 64 76q-29 23 -51 60q-18 31 -33.5 78t-15.5 112 q0 86 32.5 155.5t93 121t147.5 79t196 27.5q111 0 199.5 -18.5t150.5 -40.5q72 -25 129 -58l-56 -172q-53 33 -120 58q-57 23 -133 41t-166 18q-147 0 -218 -57.5t-71 -157.5q0 -74 33.5 -118t89 -71.5t126 -44t144.5 -34t144.5 -41t126 -64.5t89 -106.5t33.5 -165.5 q0 -59 -21.5 -110.5t-47.5 -88.5q-31 -43 -68 -78q31 -23 53 -57q20 -29 38 -77t18 -113q0 -174 -127 -276.5t-355 -102.5q-113 0 -205 19.5t-157 43.5q-78 29 -141 66zM301 629q0 -66 25.5 -109t69.5 -70.5t100.5 -45t118 -31t123 -27.5t116.5 -37q25 23 45 53 q16 25 31.5 61t15.5 79q0 63 -26.5 105t-71.5 68.5t-103.5 43t-121 30t-125 29t-115.5 41.5q-23 -20 -41 -49q-16 -25 -28.5 -59.5t-12.5 -81.5z" />
<glyph unicode="&#xa8;" horiz-adv-x="1126" d="M248 1413q0 61 31.5 86t72.5 25q45 0 79 -24.5t34 -86.5q0 -59 -34 -87t-79 -28q-41 0 -72.5 28t-31.5 87zM711 1413q0 61 32.5 86t73.5 25q43 0 78 -24.5t35 -86.5q0 -59 -35 -87t-78 -28q-41 0 -73.5 28t-32.5 87z" />
<glyph unicode="&#xa9;" horiz-adv-x="1910" d="M154 754q0 168 62.5 313t172 252.5t254.5 169t311 61.5t311.5 -60t255 -166.5t173 -253t63.5 -316.5q0 -168 -63.5 -315.5t-173 -256t-255 -172t-311.5 -63.5t-311 63.5t-254.5 172t-172 256t-62.5 315.5zM301 754q0 -139 50 -260t138.5 -211t208 -141.5t256.5 -51.5 t256 51.5t207 141.5t139.5 210.5t51.5 260.5q0 141 -51.5 262t-139.5 208t-206.5 136t-256.5 49q-137 0 -256.5 -50t-208 -138t-138.5 -208t-50 -259zM582 754q0 115 32.5 195.5t87 133t123 76t140.5 23.5q115 0 182 -42t102 -93q41 -59 56 -134l-138 -32q-12 47 -37 84 q-23 31 -61.5 57.5t-103.5 26.5q-41 0 -83 -14.5t-76 -48.5t-54.5 -91t-20.5 -141q0 -86 20.5 -144.5t54.5 -92.5t76 -48t85 -14q66 0 105.5 25.5t62.5 56.5q25 37 34 81l136 -32q-16 -76 -58 -133q-35 -49 -103.5 -90t-185.5 -41q-72 0 -139 23.5t-119.5 75.5t-85 134 t-32.5 199z" />
<glyph unicode="&#xaa;" horiz-adv-x="1148" d="M86 281q0 90 39 153.5t107.5 103.5t162.5 58t203 18h197v82q0 125 -62.5 169t-171.5 44q-84 0 -152.5 -15t-119.5 -34q-59 -23 -107 -47l-53 148q55 31 123 55q59 23 138 40t175 17q193 0 295.5 -85t102.5 -275v-437q0 -68 38.5 -104.5t88.5 -40.5l-15 -145 q-111 2 -174 42t-88 122q-49 -45 -113 -82q-53 -31 -126.5 -55.5t-161.5 -24.5q-68 0 -126.5 17.5t-103.5 54t-70.5 92t-25.5 129.5zM262 287q0 -41 15.5 -70t40 -46t57.5 -24.5t67 -7.5q72 0 136.5 24.5t111.5 55.5q55 37 105 82v172h-197q-96 0 -159.5 -14.5t-103.5 -39 t-56.5 -59t-16.5 -73.5z" />
<glyph unicode="&#xab;" horiz-adv-x="1134" d="M80 582l338 364h209l-346 -364l346 -367h-209zM504 582l338 364h209l-344 -364l346 -367h-209z" />
<glyph unicode="&#xad;" horiz-adv-x="784" d="M86 520v168h610v-168h-610z" />
<glyph unicode="&#xae;" horiz-adv-x="1910" d="M154 754q0 168 62.5 313t172 252.5t254.5 169t311 61.5t311.5 -60t255 -166.5t173 -253t63.5 -316.5q0 -168 -63.5 -315.5t-173 -256t-255 -172t-311.5 -63.5t-311 63.5t-254.5 172t-172 256t-62.5 315.5zM301 754q0 -139 50 -260t138.5 -211t208 -142.5t256.5 -52.5 t256 52.5t207 142.5t139.5 210.5t51.5 260.5q0 141 -51.5 262t-139.5 208t-206.5 136t-256.5 49q-137 0 -256.5 -50t-208 -138t-138.5 -208t-50 -259zM653 336v846h387q49 0 94.5 -15.5t81 -47.5t56 -78t20.5 -107q0 -88 -41 -147.5t-110 -88.5l186 -362h-153l-168 338h-213 v-338h-140zM793 795h227q57 0 96 35.5t39 103.5q0 63 -37 95t-92 32h-233v-266z" />
<glyph unicode="&#xaf;" horiz-adv-x="1126" d="M242 1327v154h647v-154h-647z" />
<glyph unicode="&#xb0;" horiz-adv-x="974" d="M100 1157q0 111 32 187.5t86 125t124 70t145 21.5q76 0 145.5 -21.5t123 -70t85 -125t31.5 -187.5t-31.5 -188.5t-85 -125.5t-123 -70.5t-145.5 -22.5t-145.5 22.5t-123.5 70.5t-86 125.5t-32 188.5zM260 1157q0 -74 18.5 -125t49 -82.5t72.5 -46t89 -14.5q45 0 86 14.5 t72 46t48.5 82.5t17.5 125t-17.5 124t-48.5 81t-71.5 44t-88.5 13q-47 0 -88 -13t-71.5 -44t-49 -81t-18.5 -124z" />
<glyph unicode="&#xb1;" d="M133 0v160h963v-160h-963zM133 590v168h391v344h172v-344h400v-168h-400v-328h-172v328h-391z" />
<glyph unicode="&#xb2;" d="M135 1184q27 98 88 178q27 33 63 65.5t85 58t111.5 41t142.5 15.5q102 0 187 -28.5t146.5 -83t95 -134t33.5 -182.5q0 -72 -15 -130t-46 -113.5t-78 -114t-112 -125.5l-451 -467h731v-164h-962v160l555 579q51 53 88 98.5t60.5 89.5t34.5 89t11 96q0 131 -76.5 197.5 t-205.5 66.5q-100 0 -160 -36.5t-92 -82.5q-37 -53 -56 -116z" />
<glyph unicode="&#xb3;" d="M113 334l180 45q16 -68 57 -121q35 -47 99.5 -84t171.5 -37q66 0 121 18.5t96 54.5t64.5 89t23.5 125q0 70 -22.5 122t-61.5 87t-91.5 52t-111.5 17h-213v154h174q59 0 112.5 17.5t92.5 51t61.5 84t22.5 115.5q0 131 -77 191.5t-198 60.5q-92 0 -148 -34.5t-87 -75.5 q-37 -49 -51 -111l-178 43q25 96 81 172q25 33 60 63.5t82 55t106.5 39t134.5 14.5q94 0 177 -23.5t144.5 -73.5t97.5 -127t36 -181q0 -96 -34 -161t-74 -106q-49 -47 -109 -75q72 -23 129 -70q49 -41 90 -112.5t41 -188.5q0 -109 -40 -193t-107.5 -141t-156.5 -86t-190 -29 q-84 0 -149.5 15.5t-116.5 40t-89 56.5t-64 67q-63 80 -86 180z" />
<glyph unicode="&#xb4;" horiz-adv-x="1126" d="M346 1227l172 297h230l-240 -297h-162z" />
<glyph unicode="&#xb5;" d="M182 -385v1440h174v-697q0 -121 53.5 -163.5t131.5 -42.5q66 0 126 25.5t105 55.5q53 37 98 84v738h172v-1055h-170v145q-45 -45 -100 -79q-47 -29 -111.5 -53.5t-142.5 -24.5q-43 0 -72.5 6t-50.5 16q-23 10 -39 25v-420h-174z" />
<glyph unicode="&#xb6;" horiz-adv-x="1245" d="M74 1012q0 141 41 238.5t108.5 157.5t155.5 88t184 28h567v-1909h-155v1761h-258v-1761h-158v883q-96 2 -184 30.5t-154.5 90t-106.5 159t-40 234.5z" />
<glyph unicode="&#xb7;" horiz-adv-x="784" d="M289 604q0 63 33.5 90t74.5 27q45 0 79 -26.5t34 -90.5q0 -63 -34 -89.5t-79 -26.5q-41 0 -74.5 26.5t-33.5 89.5z" />
<glyph unicode="&#xb8;" horiz-adv-x="1126" d="M340 -350l45 96q20 -12 45 -20q23 -8 50.5 -13.5t58.5 -5.5q37 0 60.5 14.5t23.5 42.5q0 23 -14.5 35.5t-39 18.5t-56.5 7t-64 1l-9 20l86 154h109l-53 -96q66 -2 117 -35t51 -105q0 -74 -53.5 -119.5t-157.5 -45.5q-45 0 -81 7t-61.5 16t-40 17.5t-16.5 10.5z" />
<glyph unicode="&#xb9;" d="M145 0v162h414v1145l-326 -154v170l363 201h152v-1362h376v-162h-979z" />
<glyph unicode="&#xba;" horiz-adv-x="1167" d="M94 526q0 150 40 253.5t107.5 169t155.5 95t187 29.5q98 0 186 -29.5t154.5 -95t106.5 -169t40 -253.5t-40 -253t-106.5 -167.5t-154.5 -94t-186 -29.5t-186.5 29.5t-156 94t-107.5 167.5t-40 253zM274 526q0 -115 25 -190.5t67 -121.5t98 -66.5t122 -20.5 q61 0 116.5 20.5t97.5 66.5t66.5 122t24.5 190q0 113 -24.5 191t-65.5 124t-98.5 66.5t-120.5 20.5q-61 0 -116.5 -20.5t-98.5 -66.5t-68 -124t-25 -191z" />
<glyph unicode="&#xbb;" horiz-adv-x="1134" d="M80 215l346 367l-346 364h211l338 -364l-338 -367h-211zM508 215l344 367l-344 364h209l338 -364l-340 -367h-207z" />
<glyph unicode="&#xbc;" horiz-adv-x="4302" d="M3160 276v156l674 1092h248v-1090h151v-158h-151v-276h-183v276h-739zM3355 434h544v877zM1471 0l1167 1524h184l-1163 -1524h-188zM145 0v162h414v1145l-326 -154v170l363 201h152v-1362h376v-162h-979z" />
<glyph unicode="&#xbd;" horiz-adv-x="4302" d="M3209 1184q27 98 88 178q27 33 63 65.5t85 58t111.5 41t142.5 15.5q102 0 187 -28.5t146.5 -83t95 -134t33.5 -182.5q0 -72 -15 -130t-46 -113.5t-78 -114t-112 -125.5l-451 -467h731v-164h-962v160l555 579q51 53 88 98.5t60.5 89.5t34.5 89t11 96q0 131 -76.5 197.5 t-205.5 66.5q-100 0 -160 -36.5t-92 -82.5q-37 -53 -56 -116zM1471 0l1167 1524h184l-1163 -1524h-188zM145 0v162h414v1145l-326 -154v170l363 201h152v-1362h376v-162h-979z" />
<glyph unicode="&#xbe;" horiz-adv-x="4302" d="M3160 276v156l674 1092h248v-1090h151v-158h-151v-276h-183v276h-739zM3355 434h544v877zM1471 0l1167 1524h184l-1163 -1524h-188zM113 334l180 45q16 -68 57 -121q35 -47 99.5 -84t171.5 -37q66 0 121 18.5t96 54.5t64.5 89t23.5 125q0 70 -22.5 122t-61.5 87t-91.5 52 t-111.5 17h-213v154h174q59 0 112.5 17.5t92.5 51t61.5 84t22.5 115.5q0 131 -77 191.5t-198 60.5q-92 0 -148 -34.5t-87 -75.5q-37 -49 -51 -111l-178 43q25 96 81 172q25 33 60 63.5t82 55t106.5 39t134.5 14.5q94 0 177 -23.5t144.5 -73.5t97.5 -127t36 -181 q0 -96 -34 -161t-74 -106q-49 -47 -109 -75q72 -23 129 -70q49 -41 90 -112.5t41 -188.5q0 -109 -40 -193t-107.5 -141t-156.5 -86t-190 -29q-84 0 -149.5 15.5t-116.5 40t-89 56.5t-64 67q-63 80 -86 180z" />
<glyph unicode="&#xbf;" horiz-adv-x="937" d="M66 -27q0 84 24.5 142.5t61 100.5t80.5 75t81 68.5t61.5 78.5t24.5 109v145h179v-135q0 -88 -25 -145.5t-62.5 -98.5t-80.5 -72.5t-81 -67.5t-62.5 -83t-24.5 -117q0 -104 61.5 -157.5t165.5 -53.5q78 0 124 30t71 67q29 43 41 98l178 -31q-20 -90 -72 -159 q-23 -31 -53.5 -58.5t-71.5 -50.5t-94 -36t-121 -13q-86 0 -160.5 21.5t-129 66.5t-85 113.5t-30.5 162.5zM375 1040q0 63 33.5 90t76.5 27q41 0 75 -26.5t34 -90.5q0 -61 -34 -86.5t-75 -25.5q-43 0 -76.5 25.5t-33.5 86.5z" />
<glyph unicode="&#xc0;" horiz-adv-x="1449" d="M51 0l563 1524h226l559 -1524h-205l-119 328h-704l-121 -328h-199zM420 489h606l-303 840zM485 1932h229l173 -297h-162z" />
<glyph unicode="&#xc1;" horiz-adv-x="1449" d="M51 0l563 1524h226l559 -1524h-205l-119 328h-704l-121 -328h-199zM420 489h606l-303 840zM561 1635l172 297h230l-240 -297h-162z" />
<glyph unicode="&#xc2;" horiz-adv-x="1449" d="M51 0l563 1524h226l559 -1524h-205l-119 328h-704l-121 -328h-199zM420 489h606l-303 840zM387 1636l256 287h166l254 -287h-202l-136 166l-133 -166h-205z" />
<glyph unicode="&#xc3;" horiz-adv-x="1449" d="M51 0l563 1524h226l559 -1524h-205l-119 328h-704l-121 -328h-199zM420 489h606l-303 840zM336 1636q6 76 34 135q25 51 74 94.5t135 43.5q59 0 99.5 -19.5t73 -44t61.5 -44t65 -19.5q37 0 58.5 19.5t31.5 43.5q12 27 15 64h147q-8 -78 -37 -138q-25 -51 -72.5 -93 t-133.5 -42q-57 0 -95.5 20.5t-70 44t-61 44t-72.5 20.5q-39 0 -59.5 -20.5t-31.5 -44.5q-12 -29 -14 -64h-147z" />
<glyph unicode="&#xc4;" horiz-adv-x="1449" d="M51 0l563 1524h226l559 -1524h-205l-119 328h-704l-121 -328h-199zM420 489h606l-303 840zM385 1759q0 61 31.5 86t72.5 25q45 0 79 -24.5t34 -86.5q0 -59 -34 -87t-79 -28q-41 0 -72.5 28t-31.5 87zM848 1759q0 61 32.5 86t73.5 25q43 0 78 -24.5t35 -86.5 q0 -59 -35 -87t-78 -28q-41 0 -73.5 28t-32.5 87z" />
<glyph unicode="&#xc5;" horiz-adv-x="1449" d="M51 0l541 1458q-47 23 -73.5 67t-26.5 103q0 96 65.5 151.5t169.5 55.5t169 -55.5t65 -151.5q0 -57 -28 -101t-75 -67l541 -1460h-205l-119 328h-704l-121 -328h-199zM420 489h606l-303 840zM610 1628q0 -47 32 -77.5t85 -30.5q51 0 83 30.5t32 77.5q0 43 -28 75t-87 32 q-53 0 -85 -32t-32 -75z" />
<glyph unicode="&#xc6;" horiz-adv-x="2056" d="M20 0l662 1524h1268v-166h-779v-498h695v-164h-695v-526h785v-170h-971v328h-618l-142 -328h-205zM426 489h559v869h-192z" />
<glyph unicode="&#xc7;" horiz-adv-x="1501" d="M106 762q0 213 57.5 361.5t153 241.5t216 135t249.5 42q104 0 185.5 -20.5t144 -54t108.5 -75.5t76 -87q74 -104 99 -236l-187 -43q-20 96 -73 174q-23 33 -54.5 64.5t-73.5 56.5t-97.5 40t-123.5 15q-90 0 -177 -30.5t-154.5 -101t-109.5 -189.5t-42 -293 q0 -178 42 -296t110.5 -189.5t155.5 -101.5t177 -30q137 0 220.5 52.5t128.5 117.5q53 76 71 172l185 -41q-25 -121 -93 -219q-29 -43 -70.5 -84t-98 -74.5t-128 -56t-163.5 -28.5l-45 -80q66 -2 117 -35t51 -105q0 -74 -52.5 -119.5t-156.5 -45.5q-45 0 -81 7t-62.5 16 t-41 17.5t-16.5 10.5l45 96q20 -12 45 -20q23 -8 50.5 -13.5t58.5 -5.5q37 0 60.5 14.5t23.5 42.5q0 23 -14.5 35.5t-39 18.5t-56.5 7t-64 1l-7 20l76 138q-121 8 -233.5 54t-199.5 139t-139.5 237.5t-52.5 347.5z" />
<glyph unicode="&#xc8;" horiz-adv-x="1230" d="M154 0v1524h964v-166h-778v-498h694v-164h-694v-526h784v-170h-970zM387 1932h229l173 -297h-162z" />
<glyph unicode="&#xc9;" horiz-adv-x="1230" d="M154 0v1524h964v-166h-778v-498h694v-164h-694v-526h784v-170h-970zM473 1635l172 297h230l-240 -297h-162z" />
<glyph unicode="&#xca;" horiz-adv-x="1230" d="M154 0v1524h964v-166h-778v-498h694v-164h-694v-526h784v-170h-970zM288 1634l256 287h166l254 -287h-202l-136 166l-133 -166h-205z" />
<glyph unicode="&#xcb;" horiz-adv-x="1230" d="M154 0v1524h964v-166h-778v-498h694v-164h-694v-526h784v-170h-970zM297 1759q0 61 31.5 86t72.5 25q45 0 79 -24.5t34 -86.5q0 -59 -34 -87t-79 -28q-41 0 -72.5 28t-31.5 87zM760 1759q0 61 32.5 86t73.5 25q43 0 78 -24.5t35 -86.5q0 -59 -35 -87t-78 -28 q-41 0 -73.5 28t-32.5 87z" />
<glyph unicode="&#xcc;" horiz-adv-x="512" d="M160 0v1524h192v-1524h-192zM-19 1932h229l173 -297h-162z" />
<glyph unicode="&#xcd;" horiz-adv-x="512" d="M160 0v1524h192v-1524h-192zM135 1635l172 297h230l-240 -297h-162z" />
<glyph unicode="&#xce;" horiz-adv-x="512" d="M160 0v1524h192v-1524h-192zM-78 1636l256 287h166l254 -287h-202l-136 166l-133 -166h-205z" />
<glyph unicode="&#xcf;" horiz-adv-x="512" d="M-20 1761q0 59 30.5 84t69.5 25q45 0 77.5 -24.5t32.5 -84.5q0 -61 -32.5 -86.5t-77.5 -25.5q-39 0 -69.5 25.5t-30.5 86.5zM160 0v1524h192v-1524h-192zM160 0v1524h192v-1524h-192zM322 1761q0 59 30.5 84t71.5 25q43 0 77 -24.5t34 -84.5q0 -61 -34 -86.5t-77 -25.5 q-41 0 -71.5 25.5t-30.5 86.5z" />
<glyph unicode="&#xd0;" horiz-adv-x="1472" d="M14 698v162h148v664h528q135 0 258 -41t216 -132t148.5 -236.5t55.5 -352.5t-56.5 -352.5t-150.5 -236.5t-218 -132t-259 -41h-522v698h-148zM352 168h334q94 0 181 28.5t155 98.5t107.5 184.5t39.5 284.5q0 172 -39.5 285.5t-106.5 182t-156 97.5t-187 29h-328v-498h365 v-162h-365v-530z" />
<glyph unicode="&#xd1;" horiz-adv-x="1449" d="M154 0v1524h227l739 -1237v1237h176v-1524h-219l-747 1239v-1239h-176zM332 1636q6 76 34 135q25 51 74 94.5t135 43.5q59 0 99.5 -19.5t73 -44t61.5 -44t65 -19.5q37 0 58.5 19.5t31.5 43.5q12 27 15 64h147q-8 -78 -37 -138q-25 -51 -72.5 -93t-133.5 -42 q-57 0 -95.5 20.5t-70 44t-61 44t-72.5 20.5q-39 0 -59.5 -20.5t-31.5 -44.5q-12 -29 -14 -64h-147z" />
<glyph unicode="&#xd2;" horiz-adv-x="1597" d="M106 762q0 213 56.5 362.5t152 242.5t220 135t264.5 42q137 0 263 -42t221 -135t151.5 -242.5t56.5 -362.5t-56.5 -361.5t-151.5 -243t-221 -136t-263 -41.5q-139 0 -264 41.5t-220.5 136t-152 243t-56.5 361.5zM299 762q0 -176 40 -295t109.5 -190.5t161.5 -103.5 t195 -32q98 0 187 32t158 103.5t108.5 190.5t39.5 295q0 174 -39.5 293t-107.5 191.5t-159 103t-193 30.5q-98 0 -188.5 -30.5t-160 -103t-110.5 -191.5t-41 -293zM573 1932h229l173 -297h-162z" />
<glyph unicode="&#xd3;" horiz-adv-x="1597" d="M106 762q0 213 56.5 362.5t152 242.5t220 135t264.5 42q137 0 263 -42t221 -135t151.5 -242.5t56.5 -362.5t-56.5 -361.5t-151.5 -243t-221 -136t-263 -41.5q-139 0 -264 41.5t-220.5 136t-152 243t-56.5 361.5zM299 762q0 -176 40 -295t109.5 -190.5t161.5 -103.5 t195 -32q98 0 187 32t158 103.5t108.5 190.5t39.5 295q0 174 -39.5 293t-107.5 191.5t-159 103t-193 30.5q-98 0 -188.5 -30.5t-160 -103t-110.5 -191.5t-41 -293zM631 1635l172 297h230l-240 -297h-162z" />
<glyph unicode="&#xd4;" horiz-adv-x="1597" d="M106 762q0 213 56.5 362.5t152 242.5t220 135t264.5 42q137 0 263 -42t221 -135t151.5 -242.5t56.5 -362.5t-56.5 -361.5t-151.5 -243t-221 -136t-263 -41.5q-139 0 -264 41.5t-220.5 136t-152 243t-56.5 361.5zM299 762q0 -176 40 -295t109.5 -190.5t161.5 -103.5 t195 -32q98 0 187 32t158 103.5t108.5 190.5t39.5 295q0 174 -39.5 293t-107.5 191.5t-159 103t-193 30.5q-98 0 -188.5 -30.5t-160 -103t-110.5 -191.5t-41 -293zM462 1634l256 287h166l254 -287h-202l-136 166l-133 -166h-205z" />
<glyph unicode="&#xd5;" horiz-adv-x="1597" d="M106 762q0 213 56.5 362.5t152 242.5t220 135t264.5 42q137 0 263 -42t221 -135t151.5 -242.5t56.5 -362.5t-56.5 -361.5t-151.5 -243t-221 -136t-263 -41.5q-139 0 -264 41.5t-220.5 136t-152 243t-56.5 361.5zM299 762q0 -176 40 -295t109.5 -190.5t161.5 -103.5 t195 -32q98 0 187 32t158 103.5t108.5 190.5t39.5 295q0 174 -39.5 293t-107.5 191.5t-159 103t-193 30.5q-98 0 -188.5 -30.5t-160 -103t-110.5 -191.5t-41 -293zM410 1636q6 76 34 135q25 51 74 94.5t135 43.5q59 0 99.5 -19.5t73 -44t61.5 -44t65 -19.5q37 0 58.5 19.5 t31.5 43.5q12 27 15 64h147q-8 -78 -37 -138q-25 -51 -72.5 -93t-133.5 -42q-57 0 -95.5 20.5t-70 44t-61 44t-72.5 20.5q-39 0 -59.5 -20.5t-31.5 -44.5q-12 -29 -14 -64h-147z" />
<glyph unicode="&#xd6;" horiz-adv-x="1597" d="M106 762q0 213 56.5 362.5t152 242.5t220 135t264.5 42q137 0 263 -42t221 -135t151.5 -242.5t56.5 -362.5t-56.5 -361.5t-151.5 -243t-221 -136t-263 -41.5q-139 0 -264 41.5t-220.5 136t-152 243t-56.5 361.5zM299 762q0 -176 40 -295t109.5 -190.5t161.5 -103.5 t195 -32q98 0 187 32t158 103.5t108.5 190.5t39.5 295q0 174 -39.5 293t-107.5 191.5t-159 103t-193 30.5q-98 0 -188.5 -30.5t-160 -103t-110.5 -191.5t-41 -293zM463 1761q0 61 31.5 86t72.5 25q45 0 79 -24.5t34 -86.5q0 -59 -34 -87t-79 -28q-41 0 -72.5 28t-31.5 87z M926 1761q0 61 32.5 86t73.5 25q43 0 78 -24.5t35 -86.5q0 -59 -35 -87t-78 -28q-41 0 -73.5 28t-32.5 87z" />
<glyph unicode="&#xd7;" d="M180 287l312 311l-312 311l123 123l311 -311l312 311l123 -123l-312 -311l312 -311l-123 -123l-312 311l-311 -311z" />
<glyph unicode="&#xd8;" horiz-adv-x="1597" d="M104 762q0 213 56.5 362.5t152 242.5t221 135t265.5 42q184 0 336 -78l86 148h184l-139 -236q102 -92 163.5 -242.5t61.5 -373.5q0 -213 -56.5 -362.5t-151.5 -243t-221 -135t-263 -41.5q-86 0 -165 15t-151 50l-88 -151h-186l139 235q-111 92 -177.5 246t-66.5 387z M295 762q0 -170 42 -285t107 -186l607 1030q-111 61 -252 61q-98 0 -189.5 -31.5t-161 -104t-111.5 -191.5t-42 -293zM567 190q53 -27 112.5 -39t125.5 -12q100 0 190 32t158 104.5t107.5 191.5t39.5 295q0 160 -37.5 270.5t-97.5 179.5z" />
<glyph unicode="&#xd9;" horiz-adv-x="1468" d="M145 545v979h195v-979q0 -190 99.5 -296t295.5 -106q199 0 298.5 104.5t99.5 297.5v979h190v-979q0 -133 -40 -239.5t-115.5 -181.5t-185.5 -115t-247 -40q-139 0 -247.5 40t-185.5 115t-117 181.5t-40 239.5zM485 1932h229l173 -297h-162z" />
<glyph unicode="&#xda;" horiz-adv-x="1468" d="M145 545v979h195v-979q0 -190 99.5 -296t295.5 -106q199 0 298.5 104.5t99.5 297.5v979h190v-979q0 -133 -40 -239.5t-115.5 -181.5t-185.5 -115t-247 -40q-139 0 -247.5 40t-185.5 115t-117 181.5t-40 239.5zM588 1635l172 297h230l-240 -297h-162z" />
<glyph unicode="&#xdb;" horiz-adv-x="1468" d="M145 545v979h195v-979q0 -190 99.5 -296t295.5 -106q199 0 298.5 104.5t99.5 297.5v979h190v-979q0 -133 -40 -239.5t-115.5 -181.5t-185.5 -115t-247 -40q-139 0 -247.5 40t-185.5 115t-117 181.5t-40 239.5zM403 1636l256 287h166l254 -287h-202l-136 166l-133 -166 h-205z" />
<glyph unicode="&#xdc;" horiz-adv-x="1468" d="M145 545v979h195v-979q0 -190 99.5 -296t295.5 -106q199 0 298.5 104.5t99.5 297.5v979h190v-979q0 -133 -40 -239.5t-115.5 -181.5t-185.5 -115t-247 -40q-139 0 -247.5 40t-185.5 115t-117 181.5t-40 239.5zM395 1759q0 61 31.5 86t72.5 25q45 0 79 -24.5t34 -86.5 q0 -59 -34 -87t-79 -28q-41 0 -72.5 28t-31.5 87zM858 1759q0 61 32.5 86t73.5 25q43 0 78 -24.5t35 -86.5q0 -59 -35 -87t-78 -28q-41 0 -73.5 28t-32.5 87z" />
<glyph unicode="&#xdd;" horiz-adv-x="1302" d="M47 1524h225l385 -645l383 645h215l-503 -817v-707h-193v702zM510 1635l172 297h230l-240 -297h-162z" />
<glyph unicode="&#xde;" horiz-adv-x="1261" d="M154 0v1524h188v-260h414q86 0 164.5 -28t139 -82t96.5 -136t36 -189q0 -106 -37 -189t-98.5 -140.5t-141 -87t-165.5 -29.5h-408v-383h-188zM342 547h379q61 0 113.5 18.5t91.5 54t61.5 89t22.5 120.5q0 135 -79 204t-198 69h-391v-555z" />
<glyph unicode="&#xdf;" horiz-adv-x="1128" d="M135 0v1141q0 186 93.5 290.5t271.5 104.5q172 0 268 -96.5t96 -261.5q0 -59 -12 -111.5t-28.5 -94.5t-34 -74t-29.5 -50l-15 -25l29 -12q31 -14 76 -43t88 -75t72.5 -114.5t29.5 -162.5q0 -109 -36.5 -186.5t-99 -129t-143.5 -76t-167 -24.5h-137v156h129q57 0 108 14 t89 45t59.5 80t21.5 121q0 61 -19.5 108t-51 84t-71.5 63.5t-81 49.5l-96 51l59 102q35 59 60.5 129t25.5 152q0 102 -49 162.5t-141 60.5q-84 0 -137.5 -55t-53.5 -180v-1143h-174z" />
<glyph unicode="&#xe0;" horiz-adv-x="1148" d="M86 281q0 90 39 153.5t107.5 103.5t162.5 58t203 18h197v82q0 125 -62.5 169t-171.5 44q-84 0 -152.5 -15t-119.5 -34q-59 -23 -107 -47l-53 148q55 31 123 55q59 23 138 40t175 17q193 0 295.5 -85t102.5 -275v-437q0 -68 38.5 -104.5t88.5 -40.5l-15 -145 q-111 2 -174 42t-88 122q-49 -45 -113 -82q-53 -31 -126.5 -55.5t-161.5 -24.5q-68 0 -126.5 17.5t-103.5 54t-70.5 92t-25.5 129.5zM262 287q0 -41 15.5 -70t40 -46t57.5 -24.5t67 -7.5q72 0 136.5 24.5t111.5 55.5q55 37 105 82v172h-197q-96 0 -159.5 -14.5t-103.5 -39 t-56.5 -59t-16.5 -73.5zM330 1524h229l173 -297h-162z" />
<glyph unicode="&#xe1;" horiz-adv-x="1148" d="M86 281q0 90 39 153.5t107.5 103.5t162.5 58t203 18h197v82q0 125 -62.5 169t-171.5 44q-84 0 -152.5 -15t-119.5 -34q-59 -23 -107 -47l-53 148q55 31 123 55q59 23 138 40t175 17q193 0 295.5 -85t102.5 -275v-437q0 -68 38.5 -104.5t88.5 -40.5l-15 -145 q-111 2 -174 42t-88 122q-49 -45 -113 -82q-53 -31 -126.5 -55.5t-161.5 -24.5q-68 0 -126.5 17.5t-103.5 54t-70.5 92t-25.5 129.5zM262 287q0 -41 15.5 -70t40 -46t57.5 -24.5t67 -7.5q72 0 136.5 24.5t111.5 55.5q55 37 105 82v172h-197q-96 0 -159.5 -14.5t-103.5 -39 t-56.5 -59t-16.5 -73.5zM432 1227l172 297h230l-240 -297h-162z" />
<glyph unicode="&#xe2;" horiz-adv-x="1148" d="M86 281q0 90 39 153.5t107.5 103.5t162.5 58t203 18h197v82q0 125 -62.5 169t-171.5 44q-84 0 -152.5 -15t-119.5 -34q-59 -23 -107 -47l-53 148q55 31 123 55q59 23 138 40t175 17q193 0 295.5 -85t102.5 -275v-437q0 -68 38.5 -104.5t88.5 -40.5l-15 -145 q-111 2 -174 42t-88 122q-49 -45 -113 -82q-53 -31 -126.5 -55.5t-161.5 -24.5q-68 0 -126.5 17.5t-103.5 54t-70.5 92t-25.5 129.5zM262 287q0 -41 15.5 -70t40 -46t57.5 -24.5t67 -7.5q72 0 136.5 24.5t111.5 55.5q55 37 105 82v172h-197q-96 0 -159.5 -14.5t-103.5 -39 t-56.5 -59t-16.5 -73.5zM229 1237l256 287h166l254 -287h-202l-136 166l-133 -166h-205z" />
<glyph unicode="&#xe3;" horiz-adv-x="1148" d="M86 281q0 90 39 153.5t107.5 103.5t162.5 58t203 18h197v82q0 125 -62.5 169t-171.5 44q-84 0 -152.5 -15t-119.5 -34q-59 -23 -107 -47l-53 148q55 31 123 55q59 23 138 40t175 17q193 0 295.5 -85t102.5 -275v-437q0 -68 38.5 -104.5t88.5 -40.5l-15 -145 q-111 2 -174 42t-88 122q-49 -45 -113 -82q-53 -31 -126.5 -55.5t-161.5 -24.5q-68 0 -126.5 17.5t-103.5 54t-70.5 92t-25.5 129.5zM262 287q0 -41 15.5 -70t40 -46t57.5 -24.5t67 -7.5q72 0 136.5 24.5t111.5 55.5q55 37 105 82v172h-197q-96 0 -159.5 -14.5t-103.5 -39 t-56.5 -59t-16.5 -73.5zM164 1247q6 76 34 135q25 51 74 94.5t135 43.5q59 0 99.5 -19.5t73 -44t61.5 -44t65 -19.5q37 0 58.5 19.5t31.5 43.5q12 27 15 64h147q-8 -78 -37 -138q-25 -51 -72.5 -93t-133.5 -42q-57 0 -95.5 20.5t-70 44t-61 44t-72.5 20.5q-39 0 -59.5 -20.5 t-31.5 -44.5q-12 -29 -14 -64h-147z" />
<glyph unicode="&#xe4;" horiz-adv-x="1148" d="M86 281q0 90 39 153.5t107.5 103.5t162.5 58t203 18h197v82q0 125 -62.5 169t-171.5 44q-84 0 -152.5 -15t-119.5 -34q-59 -23 -107 -47l-53 148q55 31 123 55q59 23 138 40t175 17q193 0 295.5 -85t102.5 -275v-437q0 -68 38.5 -104.5t88.5 -40.5l-15 -145 q-111 2 -174 42t-88 122q-49 -45 -113 -82q-53 -31 -126.5 -55.5t-161.5 -24.5q-68 0 -126.5 17.5t-103.5 54t-70.5 92t-25.5 129.5zM262 287q0 -41 15.5 -70t40 -46t57.5 -24.5t67 -7.5q72 0 136.5 24.5t111.5 55.5q55 37 105 82v172h-197q-96 0 -159.5 -14.5t-103.5 -39 t-56.5 -59t-16.5 -73.5zM238 1413q0 61 31.5 86t72.5 25q45 0 79 -24.5t34 -86.5q0 -59 -34 -87t-79 -28q-41 0 -72.5 28t-31.5 87zM701 1413q0 61 32.5 86t73.5 25q43 0 78 -24.5t35 -86.5q0 -59 -35 -87t-78 -28q-41 0 -73.5 28t-32.5 87z" />
<glyph unicode="&#xe5;" horiz-adv-x="1148" d="M86 281q0 90 39 153.5t107.5 103.5t162.5 58t203 18h197v82q0 125 -62.5 169t-171.5 44q-84 0 -152.5 -15t-119.5 -34q-59 -23 -107 -47l-53 148q55 31 123 55q59 23 138 40t175 17q193 0 295.5 -85t102.5 -275v-437q0 -68 38.5 -104.5t88.5 -40.5l-15 -145 q-111 2 -174 42t-88 122q-49 -45 -113 -82q-53 -31 -126.5 -55.5t-161.5 -24.5q-68 0 -126.5 17.5t-103.5 54t-70.5 92t-25.5 129.5zM262 287q0 -41 15.5 -70t40 -46t57.5 -24.5t67 -7.5q72 0 136.5 24.5t111.5 55.5q55 37 105 82v172h-197q-96 0 -159.5 -14.5t-103.5 -39 t-56.5 -59t-16.5 -73.5zM338 1407q0 94 65.5 149.5t169.5 55.5t169 -55.5t65 -149.5q0 -96 -65.5 -152.5t-168.5 -56.5q-104 0 -169.5 57.5t-65.5 151.5zM457 1407q0 -47 31.5 -79t84.5 -32q51 0 83 32t32 79q0 43 -27.5 74.5t-87.5 31.5q-53 0 -84.5 -31.5t-31.5 -74.5z " />
<glyph unicode="&#xe6;" horiz-adv-x="1812" d="M88 285q0 90 39 153.5t107.5 102.5t161.5 56t202 17h195v82q0 125 -61.5 169t-172.5 44q-84 0 -151.5 -15t-118.5 -34q-59 -23 -107 -47l-55 148q55 31 123 55q59 23 138 40t173 17q135 0 222 -44t126 -128q61 84 154.5 129t200.5 45q88 0 172 -27.5t148.5 -91t103 -167 t38.5 -252.5v-74h-765q8 -92 42.5 -151.5t84 -95.5t108.5 -50t119 -14q72 0 135 15t111 34q53 23 98 49l55 -150q-51 -35 -115 -59q-53 -23 -128.5 -40t-167.5 -17q-119 0 -222.5 41t-179.5 133q-18 -16 -59 -45t-101.5 -56.5t-136.5 -48t-166 -20.5q-74 0 -137 18.5 t-110.5 55t-75 93t-27.5 130.5zM264 293q0 -82 58.5 -118t140.5 -36q59 0 113.5 12.5t101.5 33t86 44t67 47.5q-33 78 -38 199h-193q-96 0 -160.5 -13t-103.5 -37t-55.5 -57.5t-16.5 -74.5zM963 600h581q0 88 -25.5 149.5t-65.5 100.5t-90 55.5t-99 16.5q-51 0 -101.5 -16.5 t-92.5 -53.5t-71.5 -98.5t-35.5 -153.5z" />
<glyph unicode="&#xe7;" horiz-adv-x="1105" d="M94 528q0 150 42 253.5t110.5 169t155.5 95t178 29.5q74 0 131 -14t102 -39t77 -55.5t54 -63.5q53 -76 68 -170l-168 -41q-12 63 -45 115q-29 43 -80 79t-137 36q-55 0 -109.5 -18.5t-97.5 -64.5t-69.5 -122t-26.5 -189q0 -115 26.5 -189.5t69.5 -118.5t97 -62.5 t110 -18.5q86 0 137 34t80 75q33 49 47 110l166 -36q-16 -86 -64 -156q-20 -31 -49 -60.5t-67.5 -54t-89 -42t-113.5 -23.5l-43 -82q33 0 63.5 -9.5t54 -25.5t38 -42t14.5 -63q0 -74 -53.5 -119.5t-157.5 -45.5q-45 0 -81 7t-61.5 16t-40 17.5t-16.5 10.5l43 96 q20 -12 45 -20q23 -8 50.5 -13.5t58.5 -5.5q39 0 62.5 14.5t23.5 42.5q0 23 -14.5 35.5t-39 18.5t-56.5 7t-64 1l-9 20l76 140q-84 6 -160.5 39.5t-136 99t-95.5 165t-36 238.5z" />
<glyph unicode="&#xe8;" horiz-adv-x="1136" d="M94 528q0 145 41 249t108.5 169.5t153.5 96t176 30.5t174 -27.5t149 -91t103.5 -166t38.5 -251.5v-74h-766q8 -92 43 -152.5t85.5 -96.5t109.5 -50t119 -14q72 0 135 15t110 34q53 23 101 51l53 -150q-49 -35 -113 -59q-53 -23 -128.5 -40t-168.5 -17q-104 0 -199 29.5 t-167 95t-115 169t-43 250.5zM274 598h582q0 90 -24.5 152.5t-64.5 100.5t-90 55.5t-102 17.5q-51 0 -101 -16.5t-92 -54.5t-72 -100.5t-36 -154.5zM346 1524h229l173 -297h-162z" />
<glyph unicode="&#xe9;" horiz-adv-x="1136" d="M94 528q0 145 41 249t108.5 169.5t153.5 96t176 30.5t174 -27.5t149 -91t103.5 -166t38.5 -251.5v-74h-766q8 -92 43 -152.5t85.5 -96.5t109.5 -50t119 -14q72 0 135 15t110 34q53 23 101 51l53 -150q-49 -35 -113 -59q-53 -23 -128.5 -40t-168.5 -17q-104 0 -199 29.5 t-167 95t-115 169t-43 250.5zM274 598h582q0 90 -24.5 152.5t-64.5 100.5t-90 55.5t-102 17.5q-51 0 -101 -16.5t-92 -54.5t-72 -100.5t-36 -154.5zM422 1227l172 297h230l-240 -297h-162z" />
<glyph unicode="&#xea;" horiz-adv-x="1136" d="M94 528q0 145 41 249t108.5 169.5t153.5 96t176 30.5t174 -27.5t149 -91t103.5 -166t38.5 -251.5v-74h-766q8 -92 43 -152.5t85.5 -96.5t109.5 -50t119 -14q72 0 135 15t110 34q53 23 101 51l53 -150q-49 -35 -113 -59q-53 -23 -128.5 -40t-168.5 -17q-104 0 -199 29.5 t-167 95t-115 169t-43 250.5zM274 598h582q0 90 -24.5 152.5t-64.5 100.5t-90 55.5t-102 17.5q-51 0 -101 -16.5t-92 -54.5t-72 -100.5t-36 -154.5zM245 1237l256 287h166l254 -287h-202l-136 166l-133 -166h-205z" />
<glyph unicode="&#xeb;" horiz-adv-x="1136" d="M94 528q0 145 41 249t108.5 169.5t153.5 96t176 30.5t174 -27.5t149 -91t103.5 -166t38.5 -251.5v-74h-766q8 -92 43 -152.5t85.5 -96.5t109.5 -50t119 -14q72 0 135 15t110 34q53 23 101 51l53 -150q-49 -35 -113 -59q-53 -23 -128.5 -40t-168.5 -17q-104 0 -199 29.5 t-167 95t-115 169t-43 250.5zM274 598h582q0 90 -24.5 152.5t-64.5 100.5t-90 55.5t-102 17.5q-51 0 -101 -16.5t-92 -54.5t-72 -100.5t-36 -154.5zM246 1413q0 61 31.5 86t72.5 25q45 0 79 -24.5t34 -86.5q0 -59 -34 -87t-79 -28q-41 0 -72.5 28t-31.5 87zM709 1413 q0 61 32.5 86t73.5 25q43 0 78 -24.5t35 -86.5q0 -59 -35 -87t-78 -28q-41 0 -73.5 28t-32.5 87z" />
<glyph unicode="&#xec;" horiz-adv-x="483" d="M152 0v1057h178v-1057h-178zM-41 1524h229l173 -297h-162z" />
<glyph unicode="&#xed;" horiz-adv-x="483" d="M152 0v1057h178v-1057h-178zM121 1227l172 297h230l-240 -297h-162z" />
<glyph unicode="&#xee;" horiz-adv-x="483" d="M152 0v1057h178v-1057h-178zM-95 1237l256 287h166l254 -287h-202l-136 166l-133 -166h-205z" />
<glyph unicode="&#xef;" horiz-adv-x="483" d="M-37 1413q0 61 31 86t72 25t74.5 -24.5t33.5 -86.5q0 -59 -34 -87t-74 -28q-41 0 -72 28t-31 87zM152 0v1057h178v-1057h-178zM307 1413q0 61 31 86t72 25q43 0 75.5 -24.5t32.5 -86.5q0 -59 -32.5 -87t-75.5 -28q-41 0 -72 28t-31 87z" />
<glyph unicode="&#xf0;" horiz-adv-x="1159" d="M94 528q0 145 33 248t88 167.5t129 94t158 29.5q72 0 131 -17.5t104 -37.5q53 -23 94 -54q0 2 -7 32t-20 73t-30.5 91t-40.5 89l-237 -104v147l174 78q-20 35 -39 63.5t-35 51.5q-18 25 -35 45h180q10 -12 23 -29q10 -14 23.5 -32.5t29.5 -43.5l234 101v-146l-166 -74 q63 -125 115.5 -308t52.5 -427q0 -160 -37 -271.5t-100.5 -180t-149.5 -100t-182 -31.5q-98 0 -186.5 29.5t-156 95t-107.5 168.5t-40 253zM276 526q0 -113 25 -189.5t67 -122.5t98 -66.5t120 -20.5q61 0 113.5 20.5t91 70.5t60 133t21.5 206q0 35 -2 71t-6 66q-4 37 -6 70 q-45 39 -98 70q-47 27 -107.5 48t-132.5 21q-49 0 -94 -17.5t-78 -60.5t-52.5 -115.5t-19.5 -183.5z" />
<glyph unicode="&#xf1;" horiz-adv-x="1132" d="M135 0v1057h170v-148q47 45 105 82q49 31 116.5 56.5t149.5 25.5q68 0 126 -19.5t101 -61.5t67.5 -108.5t24.5 -162.5v-721h-174v694q0 61 -14 102.5t-39 66t-58.5 34.5t-72.5 10q-68 0 -127 -26.5t-104 -57.5q-53 -37 -97 -84v-739h-174zM176 1247q6 76 34 135 q25 51 74 94.5t135 43.5q59 0 99.5 -19.5t73 -44t61.5 -44t65 -19.5q37 0 58.5 19.5t31.5 43.5q12 27 15 64h147q-8 -78 -37 -138q-25 -51 -72.5 -93t-133.5 -42q-57 0 -95.5 20.5t-70 44t-61 44t-72.5 20.5q-39 0 -59.5 -20.5t-31.5 -44.5q-12 -29 -14 -64h-147z" />
<glyph unicode="&#xf2;" horiz-adv-x="1167" d="M94 526q0 150 40 253.5t107.5 169t155.5 95t187 29.5q98 0 186 -29.5t154.5 -95t106.5 -169t40 -253.5t-40 -253t-106.5 -167.5t-154.5 -94t-186 -29.5t-186.5 29.5t-156 94t-107.5 167.5t-40 253zM274 526q0 -115 25 -190.5t67 -121.5t98 -66.5t122 -20.5 q61 0 116.5 20.5t97.5 66.5t66.5 122t24.5 190q0 113 -24.5 191t-65.5 124t-98.5 66.5t-120.5 20.5q-61 0 -116.5 -20.5t-98.5 -66.5t-68 -124t-25 -191zM356 1524h229l173 -297h-162z" />
<glyph unicode="&#xf3;" horiz-adv-x="1167" d="M94 526q0 150 40 253.5t107.5 169t155.5 95t187 29.5q98 0 186 -29.5t154.5 -95t106.5 -169t40 -253.5t-40 -253t-106.5 -167.5t-154.5 -94t-186 -29.5t-186.5 29.5t-156 94t-107.5 167.5t-40 253zM274 526q0 -115 25 -190.5t67 -121.5t98 -66.5t122 -20.5 q61 0 116.5 20.5t97.5 66.5t66.5 122t24.5 190q0 113 -24.5 191t-65.5 124t-98.5 66.5t-120.5 20.5q-61 0 -116.5 -20.5t-98.5 -66.5t-68 -124t-25 -191zM452 1227l172 297h230l-240 -297h-162z" />
<glyph unicode="&#xf4;" horiz-adv-x="1167" d="M94 526q0 150 40 253.5t107.5 169t155.5 95t187 29.5q98 0 186 -29.5t154.5 -95t106.5 -169t40 -253.5t-40 -253t-106.5 -167.5t-154.5 -94t-186 -29.5t-186.5 29.5t-156 94t-107.5 167.5t-40 253zM274 526q0 -115 25 -190.5t67 -121.5t98 -66.5t122 -20.5 q61 0 116.5 20.5t97.5 66.5t66.5 122t24.5 190q0 113 -24.5 191t-65.5 124t-98.5 66.5t-120.5 20.5q-61 0 -116.5 -20.5t-98.5 -66.5t-68 -124t-25 -191zM249 1237l256 287h166l254 -287h-202l-136 166l-133 -166h-205z" />
<glyph unicode="&#xf5;" horiz-adv-x="1167" d="M94 526q0 150 40 253.5t107.5 169t155.5 95t187 29.5q98 0 186 -29.5t154.5 -95t106.5 -169t40 -253.5t-40 -253t-106.5 -167.5t-154.5 -94t-186 -29.5t-186.5 29.5t-156 94t-107.5 167.5t-40 253zM274 526q0 -115 25 -190.5t67 -121.5t98 -66.5t122 -20.5 q61 0 116.5 20.5t97.5 66.5t66.5 122t24.5 190q0 113 -24.5 191t-65.5 124t-98.5 66.5t-120.5 20.5q-61 0 -116.5 -20.5t-98.5 -66.5t-68 -124t-25 -191zM197 1247q6 76 34 135q25 51 74 94.5t135 43.5q59 0 99.5 -19.5t73 -44t61.5 -44t65 -19.5q37 0 58.5 19.5t31.5 43.5 q12 27 15 64h147q-8 -78 -37 -138q-25 -51 -72.5 -93t-133.5 -42q-57 0 -95.5 20.5t-70 44t-61 44t-72.5 20.5q-39 0 -59.5 -20.5t-31.5 -44.5q-12 -29 -14 -64h-147z" />
<glyph unicode="&#xf6;" horiz-adv-x="1167" d="M94 526q0 150 40 253.5t107.5 169t155.5 95t187 29.5q98 0 186 -29.5t154.5 -95t106.5 -169t40 -253.5t-40 -253t-106.5 -167.5t-154.5 -94t-186 -29.5t-186.5 29.5t-156 94t-107.5 167.5t-40 253zM274 526q0 -115 25 -190.5t67 -121.5t98 -66.5t122 -20.5 q61 0 116.5 20.5t97.5 66.5t66.5 122t24.5 190q0 113 -24.5 191t-65.5 124t-98.5 66.5t-120.5 20.5q-61 0 -116.5 -20.5t-98.5 -66.5t-68 -124t-25 -191zM250 1413q0 61 31.5 86t72.5 25q45 0 79 -24.5t34 -86.5q0 -59 -34 -87t-79 -28q-41 0 -72.5 28t-31.5 87zM713 1413 q0 61 32.5 86t73.5 25q43 0 78 -24.5t35 -86.5q0 -59 -35 -87t-78 -28q-41 0 -73.5 28t-32.5 87z" />
<glyph unicode="&#xf7;" d="M131 518v166h969v-166h-969zM508 190q0 59 31.5 85t72.5 26t73 -25.5t32 -85.5q0 -61 -32 -87.5t-73 -26.5t-72.5 26.5t-31.5 87.5zM508 1016q0 59 31.5 83.5t72.5 24.5t73 -24.5t32 -83.5q0 -61 -32 -88t-73 -27t-72.5 27t-31.5 88z" />
<glyph unicode="&#xf8;" horiz-adv-x="1167" d="M94 526q0 147 40 252t107.5 170.5t155.5 95t187 29.5q59 0 115.5 -11t103.5 -36l69 123h152l-109 -195q72 -66 114 -170t42 -258q0 -147 -40 -250.5t-106.5 -168t-154.5 -95t-186 -30.5q-109 0 -195 32l-67 -120h-154l104 186q-80 63 -129 171.5t-49 274.5zM268 526 q0 -104 24.5 -182t65.5 -121l373 674q-27 16 -68.5 23.5t-76.5 7.5q-68 0 -126.5 -21.5t-101.5 -70t-66.5 -124t-23.5 -186.5zM463 147q29 -10 57.5 -15t69.5 -5q66 0 122 22.5t97 70.5t64.5 124t23.5 182q0 94 -19.5 164t-50.5 113z" />
<glyph unicode="&#xf9;" horiz-adv-x="1132" d="M135 336v721h174v-697q0 -61 14.5 -102t39 -64.5t58.5 -33.5t73 -10q66 0 125 25.5t106 57.5q53 37 98 84v740h172v-1057h-170v147q-47 -45 -104 -81q-49 -31 -116.5 -56.5t-147.5 -25.5q-68 0 -126.5 18t-101.5 60t-68.5 110t-25.5 164zM332 1524h229l173 -297h-162z " />
<glyph unicode="&#xfa;" horiz-adv-x="1132" d="M135 336v721h174v-697q0 -61 14.5 -102t39 -64.5t58.5 -33.5t73 -10q66 0 125 25.5t106 57.5q53 37 98 84v740h172v-1057h-170v147q-47 -45 -104 -81q-49 -31 -116.5 -56.5t-147.5 -25.5q-68 0 -126.5 18t-101.5 60t-68.5 110t-25.5 164zM455 1227l172 297h230l-240 -297 h-162z" />
<glyph unicode="&#xfb;" horiz-adv-x="1132" d="M135 336v721h174v-697q0 -61 14.5 -102t39 -64.5t58.5 -33.5t73 -10q66 0 125 25.5t106 57.5q53 37 98 84v740h172v-1057h-170v147q-47 -45 -104 -81q-49 -31 -116.5 -56.5t-147.5 -25.5q-68 0 -126.5 18t-101.5 60t-68.5 110t-25.5 164zM233 1237l256 287h166l254 -287 h-202l-136 166l-133 -166h-205z" />
<glyph unicode="&#xfc;" horiz-adv-x="1132" d="M135 336v721h174v-697q0 -61 14.5 -102t39 -64.5t58.5 -33.5t73 -10q66 0 125 25.5t106 57.5q53 37 98 84v740h172v-1057h-170v147q-47 -45 -104 -81q-49 -31 -116.5 -56.5t-147.5 -25.5q-68 0 -126.5 18t-101.5 60t-68.5 110t-25.5 164zM238 1413q0 61 31.5 86t72.5 25 q45 0 79 -24.5t34 -86.5q0 -59 -34 -87t-79 -28q-41 0 -72.5 28t-31.5 87zM701 1413q0 61 32.5 86t73.5 25q43 0 78 -24.5t35 -86.5q0 -59 -35 -87t-78 -28q-41 0 -73.5 28t-32.5 87z" />
<glyph unicode="&#xfd;" horiz-adv-x="1011" d="M41 1057h190l301 -805l261 805h178l-420 -1213q-78 -229 -326 -229h-43v152h27q76 0 117 27.5t63 92.5l53 148zM385 1227l172 297h230l-240 -297h-162z" />
<glyph unicode="&#xfe;" horiz-adv-x="1161" d="M135 -385v1909h170v-600q47 39 105 71q49 29 114.5 51.5t143.5 22.5q82 0 153.5 -28.5t125.5 -92t86 -168t32 -254.5t-33 -252t-88 -166.5t-129 -93t-156 -28.5q-78 0 -142 21.5t-111 47.5q-55 31 -101 72v-512h-170zM305 299q47 -43 101 -78q47 -29 106 -52.5t127 -23.5 q49 0 94 17.5t79 60.5t53.5 117t19.5 186q0 113 -19.5 186.5t-53.5 117.5t-79 61.5t-94 17.5q-68 0 -127 -24.5t-106 -53.5q-53 -35 -101 -77v-455z" />
<glyph unicode="&#xff;" horiz-adv-x="1011" d="M41 1057h190l301 -805l261 805h178l-420 -1213q-78 -229 -326 -229h-43v152h27q76 0 117 27.5t63 92.5l53 148zM187 1413q0 61 31.5 86t72.5 25q45 0 79 -24.5t34 -86.5q0 -59 -34 -87t-79 -28q-41 0 -72.5 28t-31.5 87zM650 1413q0 61 32.5 86t73.5 25q43 0 78 -24.5 t35 -86.5q0 -59 -35 -87t-78 -28q-41 0 -73.5 28t-32.5 87z" />
<glyph unicode="&#x131;" horiz-adv-x="483" d="M152 0v1057h178v-1057h-178z" />
<glyph unicode="&#x152;" horiz-adv-x="2174" d="M100 762q0 207 55.5 352.5t149.5 236.5t218 132t259 41h1280v-166h-780v-498h696v-164h-696v-526h786v-170h-1284q-135 0 -259 41t-218 132t-150.5 236.5t-56.5 352.5zM299 764q0 -170 41 -284.5t108.5 -183.5t154.5 -97.5t181 -28.5h312v1188h-305q-98 0 -187.5 -29 t-157 -97.5t-107.5 -182t-40 -285.5z" />
<glyph unicode="&#x153;" horiz-adv-x="1933" d="M94 526q0 150 40 253.5t107.5 169t155.5 95t187 29.5q129 0 233.5 -53t165.5 -174q61 121 165.5 174t221.5 53q90 0 174 -27.5t148.5 -91t103.5 -166t39 -251.5v-74h-766q8 -92 43 -152.5t84 -96.5t108.5 -50t118.5 -14q74 0 136.5 15t109.5 34q53 23 100 51l56 -150 q-51 -35 -115 -59q-53 -23 -129 -40t-168 -17q-135 0 -249.5 53t-178.5 174q-59 -123 -165.5 -176t-235.5 -53q-98 0 -186.5 29.5t-156 94t-107.5 167.5t-40 253zM279 526q0 -113 24.5 -189.5t66.5 -122.5t98 -66.5t120 -20.5q61 0 115.5 20.5t96.5 66.5t66.5 123t24.5 189 q0 113 -24.5 190t-65.5 124t-97.5 66.5t-119.5 19.5q-61 0 -116.5 -20.5t-97.5 -66.5t-66.5 -123t-24.5 -190zM1071 600h582q0 88 -24.5 149.5t-64.5 100.5t-90.5 55.5t-101.5 16.5t-101 -16.5t-92 -53.5t-71 -98.5t-37 -153.5z" />
<glyph unicode="&#x178;" horiz-adv-x="1302" d="M47 1524h225l385 -645l383 645h215l-503 -817v-707h-193v702zM324 1759q0 61 31.5 86t72.5 25q45 0 79 -24.5t34 -86.5q0 -59 -34 -87t-79 -28q-41 0 -72.5 28t-31.5 87zM787 1759q0 61 32.5 86t73.5 25q43 0 78 -24.5t35 -86.5q0 -59 -35 -87t-78 -28q-41 0 -73.5 28 t-32.5 87z" />
<glyph unicode="&#x2c6;" horiz-adv-x="1126" d="M231 1237l256 287h166l254 -287h-202l-136 166l-133 -166h-205z" />
<glyph unicode="&#x2da;" horiz-adv-x="1126" d="M338 1407q0 94 65.5 149.5t169.5 55.5t169 -55.5t65 -149.5q0 -96 -65.5 -152.5t-168.5 -56.5q-104 0 -169.5 57.5t-65.5 151.5zM457 1407q0 -47 31.5 -79t84.5 -32q51 0 83 32t32 79q0 43 -27.5 74.5t-87.5 31.5q-53 0 -84.5 -31.5t-31.5 -74.5z" />
<glyph unicode="&#x2dc;" horiz-adv-x="1126" d="M156 1247q6 76 34 135q25 51 74 94.5t135 43.5q59 0 99.5 -19.5t73 -44t61.5 -44t65 -19.5q37 0 58.5 19.5t31.5 43.5q12 27 15 64h147q-8 -78 -37 -138q-25 -51 -72.5 -93t-133.5 -42q-57 0 -95.5 20.5t-70 44t-61 44t-72.5 20.5q-39 0 -59.5 -20.5t-31.5 -44.5 q-12 -29 -14 -64h-147z" />
<glyph unicode="&#x2000;" horiz-adv-x="964" />
<glyph unicode="&#x2001;" horiz-adv-x="1931" />
<glyph unicode="&#x2002;" horiz-adv-x="964" />
<glyph unicode="&#x2003;" horiz-adv-x="1931" />
<glyph unicode="&#x2004;" horiz-adv-x="643" />
<glyph unicode="&#x2005;" horiz-adv-x="481" />
<glyph unicode="&#x2006;" horiz-adv-x="321" />
<glyph unicode="&#x2007;" horiz-adv-x="321" />
<glyph unicode="&#x2008;" horiz-adv-x="239" />
<glyph unicode="&#x2009;" horiz-adv-x="385" />
<glyph unicode="&#x200a;" horiz-adv-x="106" />
<glyph unicode="&#x2010;" horiz-adv-x="784" d="M86 520v168h610v-168h-610z" />
<glyph unicode="&#x2011;" horiz-adv-x="784" d="M86 520v168h610v-168h-610z" />
<glyph unicode="&#x2012;" horiz-adv-x="784" d="M86 520v168h610v-168h-610z" />
<glyph unicode="&#x2013;" d="M131 520v170h973v-170h-973z" />
<glyph unicode="&#x2014;" horiz-adv-x="2048" d="M86 520v168h1874v-168h-1874z" />
<glyph unicode="&#x2018;" horiz-adv-x="436" d="M68 1106l159 418h138l-105 -418h-192z" />
<glyph unicode="&#x2019;" horiz-adv-x="436" d="M68 1106l102 418h192l-159 -418h-135z" />
<glyph unicode="&#x201a;" horiz-adv-x="436" d="M68 -207l102 418h192l-159 -418h-135z" />
<glyph unicode="&#x201c;" horiz-adv-x="778" d="M68 1106l159 418h135l-104 -418h-190zM414 1106l159 418h136l-105 -418h-190z" />
<glyph unicode="&#x201d;" horiz-adv-x="778" d="M66 1106l104 418h190l-159 -418h-135zM412 1106l106 418h189l-158 -418h-137z" />
<glyph unicode="&#x201e;" horiz-adv-x="778" d="M66 -209l104 418h190l-159 -418h-135zM412 -209l106 418h189l-158 -418h-137z" />
<glyph unicode="&#x2022;" horiz-adv-x="886" d="M184 618q0 53 20.5 99.5t55.5 81.5t81 55t99 20t99.5 -20t81 -55t55 -81t20.5 -100q0 -53 -20.5 -99t-55 -81t-80.5 -55.5t-100 -20.5q-53 0 -99 20.5t-81 55.5t-55.5 81t-20.5 99z" />
<glyph unicode="&#x2026;" horiz-adv-x="1325" d="M113 100q0 63 33.5 90t74.5 27q45 0 79 -26.5t34 -90.5q0 -63 -34 -89.5t-79 -26.5q-41 0 -74.5 26.5t-33.5 89.5zM555 100q0 63 33.5 90t74.5 27q45 0 79 -26.5t34 -90.5q0 -63 -34 -89.5t-79 -26.5q-41 0 -74.5 26.5t-33.5 89.5zM996 100q0 63 33.5 90t74.5 27 q45 0 79 -26.5t34 -90.5q0 -63 -34 -89.5t-79 -26.5q-41 0 -74.5 26.5t-33.5 89.5z" />
<glyph unicode="&#x202f;" horiz-adv-x="385" />
<glyph unicode="&#x2039;" horiz-adv-x="714" d="M80 582l342 364h211l-348 -364l348 -367h-211z" />
<glyph unicode="&#x203a;" horiz-adv-x="714" d="M82 215l348 367l-348 364h211l340 -364l-340 -367h-211z" />
<glyph unicode="&#x2044;" horiz-adv-x="1845" d="M242 0l1167 1524h184l-1163 -1524h-188z" />
<glyph unicode="&#x205f;" horiz-adv-x="481" />
<glyph unicode="&#x20ac;" d="M61 532v142h172v166h-172v141h177q8 143 48 249.5t103.5 175.5t149.5 102.5t188 33.5q72 0 128 -14.5t101 -38t78 -53t56 -60.5q53 -72 73 -164l-172 -38q-14 57 -47 104q-29 41 -81 73.5t-138 32.5q-55 0 -107.5 -19t-92.5 -66.5t-67.5 -125t-33.5 -192.5h453v-141h-457 v-166h457v-142h-451q6 -113 32.5 -188.5t67.5 -121.5t92.5 -66.5t106.5 -20.5q86 0 139.5 33t81.5 74q35 47 47 106l172 -39q-23 -94 -75 -166q-47 -63 -133.5 -114.5t-229.5 -51.5q-102 0 -187 34t-148.5 102.5t-103.5 173t-48 245.5h-179z" />
<glyph unicode="&#x2122;" horiz-adv-x="1779" d="M117 1403v121h624v-121h-241v-719h-144v719h-239zM874 684v840h183l203 -654l206 654h176v-840h-129v598l-194 -598h-127l-191 596v-596h-127z" />
<glyph unicode="&#xe000;" horiz-adv-x="1055" d="M0 1055h1055v-1055h-1055v1055z" />
<glyph unicode="&#xfb01;" horiz-adv-x="1214" d="M57 909v148h170v186q0 147 83 219t225 72q41 0 74.5 -3t60.5 -7q31 -6 55 -11l-23 -151q-23 4 -47 8q-23 4 -48 7t-52 3q-76 0 -114 -34.5t-38 -120.5v-168h662v-1057h-176v909h-486v-909h-176v909h-170zM866 1413q0 61 33 86t76 25t76.5 -24.5t33.5 -86.5 q0 -59 -33.5 -87t-76.5 -28t-76 28t-33 87z" />
<glyph unicode="&#xfb02;" horiz-adv-x="1193" d="M57 909v148h170v153q0 172 103.5 248t302.5 76q80 0 156.5 -9t136.5 -20q70 -12 135 -28v-1477h-172v1354q-39 6 -82 14q-37 6 -82 11t-90 5q-117 0 -175.5 -37.5t-58.5 -136.5v-153h293v-148h-293v-909h-174v909h-170z" />
<glyph unicode="&#xfb03;" horiz-adv-x="1929" d="M1579 1413q0 61 32 86t75 25t76.5 -24.5t33.5 -86.5q0 -59 -33.5 -87t-76.5 -28t-75 28t-32 87zM1598 0v1057h178v-1057h-178zM780 909v148h170v186q0 147 83 219t225 72q41 0 75.5 -3t61.5 -7q31 -6 55 -11l-22 -151q-23 4 -48 8q-23 4 -49 7t-53 3q-76 0 -114 -34.5 t-38 -120.5v-168h293v-148h-293v-909h-176v909h-170zM57 909v148h170v186q0 147 83 219t225 72q41 0 75.5 -3t61.5 -7q31 -6 55 -11l-22 -151q-23 4 -48 8q-23 4 -49 7t-53 3q-76 0 -114 -34.5t-38 -120.5v-168h293v-148h-293v-909h-176v909h-170z" />
<glyph unicode="&#xfb04;" horiz-adv-x="1902" d="M1585 0v1524h176v-1524h-176zM780 909v148h170v186q0 147 83 219t225 72q41 0 75.5 -3t61.5 -7q31 -6 55 -11l-22 -151q-23 4 -48 8q-23 4 -49 7t-53 3q-76 0 -114 -34.5t-38 -120.5v-168h293v-148h-293v-909h-176v909h-170zM57 909v148h170v186q0 147 83 219t225 72 q41 0 75.5 -3t61.5 -7q31 -6 55 -11l-22 -151q-23 4 -48 8q-23 4 -49 7t-53 3q-76 0 -114 -34.5t-38 -120.5v-168h293v-148h-293v-909h-176v909h-170z" />
</font>
</defs>
</svg>
